<svg xmlns="http://www.w3.org/2000/svg">
<defs>
<font id="Vollkorn-Semibold" horiz-adv-x="550" >
  <font-face 
    font-family="Vollkorn Semibold"
    font-weight="600"
    font-stretch="normal"
    units-per-em="1000"
    panose-1="0 0 7 0 0 0 0 0 0 0"
    ascent="750"
    descent="-250"
    x-height="460"
    cap-height="679"
    bbox="-704 -459 3056 1085"
    underline-thickness="48"
    underline-position="-392"
    unicode-range="U+0020-1D550"
  />
<missing-glyph horiz-adv-x="454" 
d="M51 677h352v-677h-352v677zM362 281v270h-270v-270h270zM102 541h70v-70h-70v70zM282 311h20v10h-10v10h-10v-20h-10v10h-20v20h-10v10h-10v-20h-10v10h-10v-10h-20v10h10v10h-10v10h10v20h-20v20h10v30h10v-40h10v20h10v10h-10v20h-20v10h-10v50h20v20h-20v20h10v-10h10
v10h30v-20h-10v10h-10v-20h10v-10h-10v-10h-20v-30h10v20h10v-30h10v50h10v20h10v-10h10v-10h-10v-10h-10v-50h-10v-10h10v-30h-10v-20h10v-20h20v-10h10v10h-10v50h10v10h-20v10h10v20h10v-10h10v-50h-10v-10h30v20h-10v20h10v10h20v20h10v-10h10v-10h-10v-10h-20v-40h10
v-20h10v-10h-10v-10h10v-10h20v-10h10v-10h-20v10h-20v-20h-30v10zM282 541h70v-70h-70v70zM162 481v50h-50v-50h50zM342 481v50h-50v-50h50zM122 521h30v-30h-30v30zM252 521h10v-10h-10v10zM302 521h30v-30h-30v30zM262 511h10v-10h-10v10zM282 451h-20v40h10v-30h40v-10
h-10v-10h-20v10zM242 481h10v-10h-10v10zM102 461h30v-10h20v10h20v-10h-10v-10h20v-10h-30v10h-40v-10h10v-10h-20v40zM342 441h-10v20h20v-30h-10v10zM232 441h10v-10h-10v10zM132 431h10v-10h-10v10zM132 411h20v10h30v-20h-10v10h-10v-10h-20v-10h-10v20zM342 401h-10
v10h10v10h10v-30h-10v10zM102 401h10v10h10v-20h-20v10zM162 401h10v-10h-10v10zM312 401h20v-10h-20v10zM142 391h20v-10h20v-10h-40v20zM102 381h30v-10h-30v10zM332 381h10v-10h-10v10zM182 371h10v-10h-10v10zM302 341v30h-30v-30h30zM322 371h10v-10h-10v10zM342 371
h10v-20h-10v20zM102 361h70v-70h-70v70zM282 361h10v-10h-10v10zM162 301v50h-50v-50h50zM182 351h10v-10h-10v10zM332 351h10v-10h-10v10zM122 341h30v-30h-30v30zM182 321h10v-20h10v20h10v10h10v-20h-10v-10h10v10h10v-20h-50v30zM242 321h10v-20h-10v20zM262 311h10v-20

<glyph glyph-name="f_f" unicode="ff" horiz-adv-x="708" 
d="M778 565q-27 -10 -74 -10q0 46 -17.5 72.5t-52.5 26.5t-50 -33t-15 -104v-69h106q0 -37 -10 -56q-57 0 -96 -12v-219q0 -43 9.5 -66.5t29.5 -33t56 -11.5q6 -17 6 -53q-49 3 -141 3q-104 0 -152 -3q0 34 6 53q28 2 42 10t20 27t6 57v240q-41 11 -100 11q-73 0 -121 -15
v-219q0 -45 8 -68t25.5 -32t49.5 -11q6 -17 6 -53q-48 3 -135 3q-98 0 -146 -3q0 37 6 53q28 2 42 10t20 27t6 57v240q-41 10 -78 10q0 35 14 54h64v25q0 68 33 119t90 78.5t129 27.5q42 0 81.5 -11t70.5 -32q30 30 70.5 45t85.5 15q66 0 110 -27q-6 -60 -4 -123zM451 485
q0 45 13 87q-20 33 -48.5 50.5t-64.5 17.5q-59 0 -90 -32t-31 -106v-54h221v37z" />
    <glyph glyph-name="f_f_i" unicode="ffi" horiz-adv-x="1014" 
d="M980 -3q-42 3 -130 3q-82 0 -129 -3q0 31 6 53q28 2 42 9.5t20 25t6 51.5v175q0 30 -7 46t-29 25t-66 10q-32 0 -71 -4t-53 -8v-234q0 -53 14.5 -73t54.5 -23q6 -17 6 -53q-45 3 -127 3q-96 0 -140 -3q0 35 6 53q28 2 42 10t20 27t6 56v242q-41 11 -100 11
q-73 0 -121 -15v-220q0 -45 8 -68t25.5 -32t49.5 -11q6 -17 6 -53q-48 3 -135 3q-98 0 -146 -3q0 37 6 53q28 2 42 10t20 27t6 57v240q-41 10 -78 10q0 35 14 54h64v25q0 68 33 119t90 78.5t129 27.5q43 0 84 -12t74 -35q73 65 198 65q55 0 95.5 -9t76.5 -24q-5 -42 -5 -104
q-17 -9 -40.5 -14.5t-47.5 -5.5q-14 0 -21 1q-2 50 -22.5 73.5t-65.5 23.5q-65 0 -93 -34.5t-28 -105.5v-69h164q40 1 82 6t72 13q13 -6 19.5 -16.5t6.5 -30.5v-283q0 -50 13 -67.5t47 -19.5q7 -16 7 -53zM451 486q0 46 15 83q-42 71 -115 71q-59 0 -90 -32t-31 -106v-54
h221v38z" />
    <glyph glyph-name="f_f_l" unicode="ffl" horiz-adv-x="1013" 
d="M982 -3q-48 3 -128 3q-85 0 -130 -3q0 35 6 53q40 1 54 19t14 68v423q0 46 -30.5 70.5t-81.5 24.5q-58 0 -87.5 -32.5t-29.5 -105.5v-69h106q0 -37 -10 -56q-57 0 -96 -12v-219q0 -44 6 -66.5t21.5 -32.5t44.5 -12q6 -17 6 -53q-49 3 -131 3q-91 0 -139 -3q0 34 6 53
q28 2 42 10t20 27t6 57v240q-41 11 -100 11q-73 0 -121 -15v-219q0 -45 8 -68t25.5 -32t49.5 -11q6 -17 6 -53q-48 3 -135 3q-98 0 -146 -3q0 37 6 53q28 2 42 10t20 27t6 57v240q-41 10 -78 10q0 35 14 54h64v25q0 68 33 119t90 78.5t129 27.5q92 0 158 -46q36 32 85 48
t104 16q31 0 61.5 -6.5t51.5 -16.5q38 6 66 24q25 -10 25 -47v-533q0 -49 13.5 -67.5t47.5 -19.5q6 -19 6 -53zM451 485q0 46 14 85q-20 35 -48.5 53t-64.5 18q-122 0 -122 -139v-54h221v37z" />
    <glyph glyph-name="f_f_t.liga" unicode="fft" horiz-adv-x="1071" 
d="M1047 33q-18 -18 -53 -30t-70 -12q-66 0 -97.5 34t-31.5 110v247q-31 11 -72 12q0 32 10 54h62v92q0 47 -29.5 71t-79.5 24q-59 0 -88 -32t-29 -106v-49h106q0 -37 -10 -56q-57 0 -96 -12v-219q0 -43 9.5 -66.5t29.5 -33t56 -11.5q6 -17 6 -53q-49 3 -141 3
q-104 0 -152 -3q0 34 6 53q28 2 42 10t20 27t6 57v241q-41 11 -100 11q-73 0 -121 -15v-220q0 -45 8 -68t25.5 -32t49.5 -11q6 -17 6 -53q-48 3 -135 3q-98 0 -146 -3q0 37 6 53q28 2 42 10t20 27t6 57v240q-41 10 -78 10q0 35 14 54h64v15q0 68 33 119t90 78.5t129 27.5
q95 0 163 -51q35 29 82.5 44t100.5 15q34 0 66.5 -8t57.5 -22q35 9 54 21q26 -11 26 -47v-192h126q0 -26 -10 -54q-66 -1 -116 -14v-226q0 -54 13 -77t41 -23q36 0 64 21q13 -18 15 -42zM451 465q0 48 16 91q-20 36 -49.5 55t-66.5 19q-59 0 -90 -32t-31 -106v-44h221v17z
" />
    <glyph glyph-name="f_i.liga" unicode="fi" horiz-adv-x="675" 
d="M44 50q28 2 42 10t20 27t6 56v238q-14 5 -37 9t-41 4q0 33 14 54h64v38q0 66 32 118.5t92.5 82t144.5 29.5q55 0 95.5 -9t76.5 -24q-5 -42 -5 -104q-17 -9 -40.5 -14.5t-47.5 -5.5q-14 0 -21 1q-2 50 -22.5 73.5t-65.5 23.5q-65 0 -93 -34.5t-28 -105.5v-69h167
q91 2 151 19q13 -6 19.5 -16.5t6.5 -30.5v-283q0 -50 13 -67.5t47 -19.5q6 -17 6 -53q-40 3 -129 3q-82 0 -129 -3q0 31 6 53q28 2 42 9.5t20 25t6 51.5v175q0 29 -7.5 46.5t-29.5 26t-64 8.5q-31 0 -71 -4t-54 -8v-234q0 -53 14.5 -73t54.5 -23q6 -17 6 -53q-45 3 -127 3
q-96 0 -140 -3q0 35 6 53z" />
    <glyph glyph-name="f_j.liga" unicode="fj" horiz-adv-x="639" 
d="M567.5 450.5q6.5 -10.5 6.5 -30.5v-380q0 -68 -27.5 -126t-69.5 -99t-87 -64q-11 5 -19 16t-10 25q56 62 75.5 112t19.5 125v282q0 30 -7 46t-28 25t-64 10q-32 0 -72.5 -4t-54.5 -8v-234q0 -53 14.5 -73t54.5 -23q6 -17 6 -53q-45 3 -127 3q-96 0 -140 -3q0 35 6 53
q28 2 42 10t20 27t6 56v238q-14 5 -37 9t-41 4q0 33 14 54h64v38q0 66 32 118.5t92.5 82t144.5 29.5q55 0 95.5 -9t76.5 -24q-5 -42 -5 -104q-17 -9 -40.5 -14.5t-47.5 -5.5q-14 0 -21 1q-2 50 -22.5 73.5t-65.5 23.5q-65 0 -93 -34.5t-28 -105.5v-69h167q91 2 151 19
q13 -6 19.5 -16.5z" />
    <glyph glyph-name="f_l.liga" unicode="fl" horiz-adv-x="674" 
d="M643 -3q-48 3 -129 3q-83 0 -130 -3q0 32 7 53q40 1 53.5 19t13.5 68v423q0 47 -30 71t-81 24q-58 0 -87.5 -32.5t-29.5 -105.5v-69h106q0 -37 -10 -56q-57 0 -96 -12v-219q0 -44 6 -66.5t21.5 -32.5t44.5 -12q6 -17 6 -53q-49 3 -131 3q-91 0 -139 -3q0 37 6 53
q28 2 42 10t20 27t6 57v240q-41 10 -78 10q0 35 14 54h64v37q0 76 36 128t95 77.5t129 25.5q31 0 61 -6.5t51 -16.5q44 9 67 24q25 -11 25 -47v-533q0 -50 13 -68t48 -19q6 -19 6 -53z" />
    <glyph glyph-name="f_t.liga" unicode="ft" horiz-adv-x="731" 
d="M707 33q-18 -18 -53 -30t-70 -12q-66 0 -97 34t-31 110v247q-31 11 -73 12q0 29 11 54h62v92q0 47 -29.5 71t-79.5 24q-59 0 -88 -32t-29 -106v-49h106q0 -37 -10 -56q-57 0 -96 -12v-219q0 -43 9 -66.5t29 -33t56 -11.5q7 -16 7 -53q-49 3 -141 3q-104 0 -152 -3
q0 37 6 53q28 2 42 10t20 27t6 57v240q-41 10 -78 10q0 35 14 54h64v17q0 76 35.5 128t94.5 77.5t129 25.5q34 0 66.5 -8t57.5 -22q33 8 53 21q26 -10 26 -47v-192h126q0 -26 -10 -54q-64 -1 -116 -14v-226q0 -54 13.5 -77t40.5 -23q36 0 64 21q13 -18 15 -42z" />
    <glyph glyph-name="longs_t.liga" unicode="&#x17f;t" horiz-adv-x="714" 
d="M689 33q-18 -18 -53 -30t-70 -12q-66 0 -97 34t-31 110v247q-31 11 -73 12q0 32 10 54h63v92q0 47 -26.5 71t-73.5 24q-54 0 -81 -33.5t-27 -104.5v-336q0 -43 9 -66.5t29 -33t56 -11.5q7 -16 7 -53q-49 3 -141 3q-104 0 -152 -3q0 37 6 53q28 2 42 10t20 27t6 57v240
q-41 10 -78 10q0 35 14 54h64v17q0 71 30.5 123.5t85 80t124.5 27.5q72 0 124 -30q35 9 54 21q26 -10 26 -47v-192h126q0 -28 -9 -54q-65 -1 -117 -14v-226q0 -54 13.5 -77t41.5 -23q36 0 63 21q13 -18 15 -42z" />
    <glyph glyph-name="longs_h.liga" unicode="&#x17f;h" horiz-adv-x="950" 
d="M915 -3q-43 3 -117 3q-38 0 -131 -3q0 35 6 53q33 0 48 20t15 70v129q0 63 -21.5 89.5t-62.5 26.5q-27 0 -51 -18t-39 -54.5t-15 -90.5v-85q0 -50 14 -68.5t49 -18.5q7 -19 7 -53q-87 3 -129 3q-88 0 -133 -3q0 35 7 53q39 0 53 18.5t14 68.5v423q0 47 -26.5 71t-74.5 24
q-51 0 -74.5 -32t-23.5 -106v-356q0 -44 6 -66.5t20.5 -32.5t42.5 -12q6 -17 6 -53q-49 3 -128 3q-91 0 -139 -3q0 37 6 53q28 2 42 10t20 27t6 57v240q-41 10 -78 10q0 35 14 54h64v37q0 75 33.5 127.5t87.5 78t116 25.5q60 0 106 -23q43 9 66 24q26 -10 26 -47v-253
q0 -28 -8 -59q2 3 7.5 14.5t13.5 22.5q21 27 59 47t84 20q66 0 108.5 -39.5t42.5 -123.5v-162q0 -49 12.5 -68t42.5 -19q6 -18 6 -53z" />
    <glyph glyph-name="longs_i.liga" unicode="&#x17f;i" horiz-adv-x="668" 
d="M75 390q-23 4 -41 4q0 33 14 54h64v38q0 66 32 118.5t92.5 82t144.5 29.5q55 0 95.5 -9t76.5 -24q-5 -42 -5 -104q-17 -9 -40.5 -14.5t-47.5 -5.5q-14 0 -21 1q-2 50 -22.5 73.5t-65.5 23.5q-65 0 -93 -34.5t-28 -105.5v-371q0 -53 14.5 -73t54.5 -23q6 -17 6 -53
q-45 3 -127 3q-96 0 -140 -3q0 35 6 53q28 2 42 10t20 27t6 56v238q-14 5 -37 9zM580 69q13 -18 48 -19q6 -24 6 -53q-49 3 -129 3q-83 0 -130 -3q0 35 6 53q40 1 54 19t14 68v178q0 26 -5.5 40.5t-21.5 22t-48 8.5q0 31 11 47q37 0 87 10.5t69 23.5q26 -10 26 -47v-283
q0 -50 13 -68z" />
    <glyph glyph-name="longs_longs.liga" unicode="&#x17f;&#x17f;" horiz-adv-x="657" 
d="M747 565q-29 -10 -75 -10q0 46 -17 72.5t-52 26.5t-50.5 -33t-15.5 -104v-356q0 -43 9.5 -66.5t29.5 -33t56 -11.5q6 -17 6 -53q-49 3 -141 3q-105 0 -150 -3q0 37 6 53q27 2 41 10t20 27t6 57v240q-43 10 -79 10q0 33 14 54h65v37q0 58 18 100q-15 25 -41.5 40t-63.5 15
q-103 0 -103 -138v-341q0 -45 8 -68t25 -32t49 -11q6 -17 6 -53q-49 3 -134 3q-98 0 -146 -3q0 37 6 53q28 2 42 10t20 27t6 57v240q-41 10 -78 10q0 35 14 54h64v25q0 68 31 119t84.5 78.5t120.5 27.5q84 0 140 -39q30 27 69.5 41.5t82.5 14.5q65 0 111 -27q-6 -60 -4 -123
z" />
    <glyph glyph-name="uni04070407.rlig" unicode="&#x407;&#x407;" horiz-adv-x="738" 
d="M45 746q-19 16 -19 39q0 27 16.5 45t49.5 18q34 0 50.5 -17t16.5 -44q0 -25 -18.5 -41t-46.5 -16q-30 0 -49 16zM217 747q-18 17 -18 45q0 26 18 41t48 15q29 0 48.5 -16t19.5 -40q0 -27 -15.5 -44.5t-48.5 -17.5q-34 0 -52 17zM423.5 745.5q-18.5 15.5 -18.5 39.5
q0 27 16.5 45t48.5 18q34 0 51 -17t17 -44q0 -25 -19 -41t-47 -16q-30 0 -48.5 15.5zM595 747q-18 17 -18 45q0 26 18.5 41t48.5 15q29 0 48 -16t19 -40q0 -27 -15.5 -44.5t-48.5 -17.5q-34 0 -52 17zM116 589q-6 19 -20 27t-42 10q-6 21 -6 53q54 -3 137 -3q74 0 134 3
q0 -15 -1 -29t-5 -24q-28 -2 -42 -10t-20 -27t-6 -56v-389q0 -38 6 -57t20 -27t42 -10q6 -16 6 -53q-55 3 -131 3q-84 0 -140 -3q0 34 6 53q28 2 42 10t20 27t6 57v389q0 37 -6 56zM485 589q-6 19 -20 27t-42 10q-6 21 -6 53q54 -3 137 -3q74 0 134 3q0 -15 -1 -29t-5 -24
q-28 -2 -42 -10t-20 -27t-6 -56v-389q0 -38 6 -57t20 -27t42 -10q6 -16 6 -53q-55 3 -131 3q-85 0 -140 -3q0 34 6 53q28 2 42 10t20 27t6 57v389q0 37 -6 56z" />
    <glyph glyph-name="uni04570457.rlig" unicode="&#x457;&#x457;" horiz-adv-x="651" 
d="M12 542q-19 17 -19 42q0 28 16.5 47t49.5 19q34 0 51 -17.5t17 -46.5q0 -26 -19 -43.5t-47 -17.5q-30 0 -49 17zM184.5 543.5q-18.5 17.5 -18.5 47.5q0 27 18.5 43t48.5 16q29 0 48.5 -17t19.5 -42q0 -28 -15.5 -46.5t-48.5 -18.5q-34 0 -52.5 17.5zM366 542
q-19 17 -19 42q0 28 16.5 47t48.5 19q34 0 51 -17.5t17 -46.5q0 -26 -18.5 -43.5t-46.5 -17.5q-30 0 -49 17zM538 543.5q-18 17.5 -18 47.5q0 27 18.5 43t48.5 16q29 0 48.5 -17t19.5 -42q0 -28 -16 -46.5t-49 -18.5q-34 0 -52 17.5zM42 50q40 1 54 19t14 68v178
q0 26 -5.5 40.5t-21.5 22t-48 8.5q0 31 10 47q37 0 87.5 10.5t69.5 23.5q25 -10 25 -47v-283q0 -49 13.5 -67.5t47.5 -19.5q6 -19 6 -53q-48 3 -128 3q-85 0 -130 -3q0 35 6 53zM368 50q40 1 54 19t14 68v178q0 26 -5.5 40.5t-21.5 22t-48 8.5q0 31 10 47q37 0 87.5 10.5
t69.5 23.5q25 -10 25 -47v-283q0 -49 13.5 -67.5t47.5 -19.5q6 -19 6 -53q-48 3 -128 3q-85 0 -130 -3q0 35 6 53z" />
    <glyph glyph-name=".notdef" horiz-adv-x="454" 
d="M51 677h352v-677h-352v677zM362 281v270h-270v-270h270zM102 541h70v-70h-70v70zM282 311h20v10h-10v10h-10v-20h-10v10h-20v20h-10v10h-10v-20h-10v10h-10v-10h-20v10h10v10h-10v10h10v20h-20v20h10v30h10v-40h10v20h10v10h-10v20h-20v10h-10v50h20v20h-20v20h10v-10h10
v10h30v-20h-10v10h-10v-20h10v-10h-10v-10h-20v-30h10v20h10v-30h10v50h10v20h10v-10h10v-10h-10v-10h-10v-50h-10v-10h10v-30h-10v-20h10v-20h20v-10h10v10h-10v50h10v10h-20v10h10v20h10v-10h10v-50h-10v-10h30v20h-10v20h10v10h20v20h10v-10h10v-10h-10v-10h-20v-40h10
v-20h10v-10h-10v-10h10v-10h20v-10h10v-10h-20v10h-20v-20h-30v10zM282 541h70v-70h-70v70zM162 481v50h-50v-50h50zM342 481v50h-50v-50h50zM122 521h30v-30h-30v30zM252 521h10v-10h-10v10zM302 521h30v-30h-30v30zM262 511h10v-10h-10v10zM282 451h-20v40h10v-30h40v-10
h-10v-10h-20v10zM242 481h10v-10h-10v10zM102 461h30v-10h20v10h20v-10h-10v-10h20v-10h-30v10h-40v-10h10v-10h-20v40zM342 441h-10v20h20v-30h-10v10zM232 441h10v-10h-10v10zM132 431h10v-10h-10v10zM132 411h20v10h30v-20h-10v10h-10v-10h-20v-10h-10v20zM342 401h-10
v10h10v10h10v-30h-10v10zM102 401h10v10h10v-20h-20v10zM162 401h10v-10h-10v10zM312 401h20v-10h-20v10zM142 391h20v-10h20v-10h-40v20zM102 381h30v-10h-30v10zM332 381h10v-10h-10v10zM182 371h10v-10h-10v10zM302 341v30h-30v-30h30zM322 371h10v-10h-10v10zM342 371
h10v-20h-10v20zM102 361h70v-70h-70v70zM282 361h10v-10h-10v10zM162 301v50h-50v-50h50zM182 351h10v-10h-10v10zM332 351h10v-10h-10v10zM122 341h30v-30h-30v30zM182 321h10v-20h10v20h10v10h10v-20h-10v-10h10v10h10v-20h-50v30zM242 321h10v-20h-10v20zM262 311h10v-20
h-10v20zM312 301h10v-10h-10v10zM342 301h10v-10h-10v10z" />
    <glyph glyph-name=".null" horiz-adv-x="0" 
 />
    <glyph glyph-name="nonmarkingreturn" horiz-adv-x="333" 
 />
    <glyph glyph-name="space" unicode=" " horiz-adv-x="200" 
 />
    <glyph glyph-name="exclam" unicode="!" horiz-adv-x="411" 
d="M238 239q-21 -8 -61 -8q-17 252 -44 448q28 5 64 15.5t56 20.5q21 -7 21 -31q0 -9 -1 -14q-26 -248 -35 -431zM258 11.5q-20 -19.5 -51 -19.5q-33 0 -51.5 18t-18.5 48t21 49.5t53 19.5q30 0 48.5 -20t18.5 -44q0 -32 -20 -51.5z" />
    <glyph glyph-name="quotedbl" unicode="&#x22;" horiz-adv-x="362" 
d="M150 662q-9 -60 -17 -171l-3 -31q-13 0 -28 3t-20 8q-5 119 -22 221q41 5 69 23q12 -2 18 -12t5 -24zM302 672q-9 -64 -20 -213q-36 0 -50 10q-8 143 -20 223q17 2 35.5 8.5t31.5 14.5q11 -2 17 -10.5t6 -21.5v-11z" />
    <glyph glyph-name="numbersign" unicode="#" horiz-adv-x="601" 
d="M459 440l-36 -174h111q0 -19 -2.5 -32t-10.5 -28h-96h-14l-43 -214q-39 4 -55 22l39 192q-112 0 -154 -1l-44 -213q-37 3 -54 26l38 187l-111 -2q0 34 13 63h111l35 173q-75 0 -108 -1q0 35 13 62h108l44 215q39 -4 54 -23l-39 -192h154l44 215q18 -2 32.5 -8t21.5 -13
l-39 -194h103q0 -35 -13 -60h-71h-31zM400 440h-155l-35 -174h154z" />
    <glyph glyph-name="dollar" unicode="$" horiz-adv-x="555" 
d="M459 54q-53 -54 -154 -62l1 -81q-15 0 -32 3.5t-25 9.5v68q-52 2 -97 17t-95 44q10 57 10 150q29 8 73 8q5 -75 30 -114t79 -47v233q-56 26 -92.5 51t-61.5 65.5t-25 98.5q0 82 49 130t133 56v63q35 0 57 -13l-1 -50q45 -3 86 -15t67 -28q0 -96 6 -137q-25 -13 -73 -13
q-12 67 -32.5 98.5t-53.5 38.5q-1 -71 -1 -221q72 -35 109.5 -57t66.5 -62.5t29 -100.5q0 -79 -53 -133zM195 482.5q20 -25.5 57 -47.5v194q-37 -6 -57 -28t-20 -58q0 -35 20 -60.5zM376.5 80q23.5 25 23.5 62q0 39 -24.5 65t-71.5 50q0 -136 1 -208q48 6 71.5 31z" />
    <glyph glyph-name="percent" unicode="%" horiz-adv-x="863" 
d="M152.5 8q-12.5 10 -18.5 22l551 656q32 -5 53 -29l-556 -664q-17 5 -29.5 15zM160 380.5q-36 21.5 -54 57t-18 74.5q0 44 19.5 82t57.5 60.5t91 22.5q47 0 80.5 -22t51 -57t17.5 -72q0 -46 -19 -84t-55 -60.5t-85 -22.5q-50 0 -86 21.5zM297 437.5q20 27.5 20 75.5
q0 49 -20.5 81t-52.5 32q-28 0 -47.5 -29t-19.5 -72q0 -51 20.5 -83t55.5 -32q24 0 44 27.5zM530 13.5q-36 21.5 -54 57t-18 74.5q0 44 19.5 82t57.5 60.5t91 22.5q47 0 80.5 -22t51 -57t17.5 -72q0 -46 -19 -84t-55 -60.5t-85 -22.5q-50 0 -86 21.5zM667 70.5
q20 27.5 20 75.5q0 49 -20.5 81t-52.5 32q-28 0 -47.5 -29t-19.5 -72q0 -51 20.5 -83t55.5 -32q24 0 44 27.5z" />
    <glyph glyph-name="ampersand" unicode="&#x26;" horiz-adv-x="759" 
d="M638.5 80.5q22.5 -9.5 66.5 -12.5q0 -32 -9 -58q-32 0 -80.5 -6t-79.5 -13q-35 45 -69 87q-41 -46 -86.5 -67t-103.5 -21q-113 0 -168 61.5t-55 152.5q0 132 137 214q-22 38 -32.5 73.5t-10.5 73.5q0 65 47.5 108.5t139.5 43.5q46 0 81 -8.5t72 -26.5q-7 -36 -7 -89
q0 -26 1 -39q-27 -9 -70 -9q-4 63 -23.5 91t-59.5 28q-32 0 -51.5 -21t-19.5 -58q0 -43 19 -83.5t75 -110.5q79 -99 151 -179q41 71 52 119q4 13 4 27q0 23 -16.5 34.5t-56.5 19.5q-7 22 -7 49q44 -3 107 -3t101 3q0 -29 -5 -48q-32 -11 -46 -27.5t-24 -52.5
q-13 -42 -29 -78.5t-42 -83.5q15 -17 49 -53q26 -28 48.5 -37.5zM370 81q30 13 59 42l-78 91q-66 76 -80 93q-24 30 -51 65q-53 -57 -53 -136q0 -81 38.5 -124.5t97.5 -43.5q37 0 67 13z" />
    <glyph glyph-name="quotesingle" unicode="'" horiz-adv-x="213" 
d="M153 673q-10 -67 -20 -214q-36 0 -50 11q-5 117 -23 221q19 3 38 9.5t31 14.5q11 -2 17.5 -10.5t6.5 -20.5v-11z" />
    <glyph glyph-name="parenleft" unicode="(" horiz-adv-x="308" 
d="M167.5 512q-29.5 -111 -29.5 -265q0 -157 32.5 -280t99.5 -230q-14 -10 -44 -8q-191 240 -191 511q0 136 44.5 253t141.5 248q24 1 43 -15q-67 -103 -96.5 -214z" />
    <glyph glyph-name="parenright" unicode=")" horiz-adv-x="308" 
d="M228.5 494.5q44.5 -115.5 44.5 -246.5q0 -148 -49.5 -276t-140.5 -243q-30 -2 -45 8q70 112 101 229t31 275q0 155 -29.5 269t-96.5 216q20 16 44 15q96 -131 140.5 -246.5z" />
    <glyph glyph-name="asterisk" unicode="*" horiz-adv-x="461" 
d="M389 647q12 -28 12 -64q0 -8 -2 -26q-43 7 -127 13l-21 2q38 -62 82 -121q-35 -32 -83 -36q-9 55 -32 141q-41 -44 -91 -112q-19 11 -34.5 28.5t-22.5 37.5q61 32 124 75q-57 26 -134 50q14 51 43 75q43 -42 110 -94q6 59 6 144q22 1 46 -3.5t40 -14.5q-28 -58 -57 -133
q60 12 141 38z" />
    <glyph glyph-name="plus" unicode="+" 
d="M502 253q-2 -14 -9 -26q-85 1 -189 1v-215q-8 -5 -26.5 -8t-34.5 -3q2 134 2 226q-71 0 -199 -2q0 42 10 62h189q0 112 -1 204q12 7 25 9t35 2v-215h200q0 -21 -2 -35z" />
    <glyph glyph-name="comma" unicode="," horiz-adv-x="275" 
d="M185 -82q-30 -58 -79 -104q-13 1 -25 6t-20 13q31 35 48 67.5t17 58.5q0 43 -54 50q0 44 11 75q57 8 92 31q21 -8 30.5 -27t9.5 -55q0 -57 -30 -115z" />
    <glyph glyph-name="hyphen" unicode="-" horiz-adv-x="419" 
d="M346 223q-186 0 -286 -5q0 19 4.5 41.5t11.5 37.5h283q0 -44 -13 -74z" />
    <glyph glyph-name="period" unicode="." horiz-adv-x="261" 
d="M73 11.5q-21 20.5 -21 54.5q0 35 23.5 57t60.5 22q34 0 55.5 -22.5t21.5 -50.5q0 -37 -22.5 -59t-58.5 -22q-38 0 -59 20.5z" />
    <glyph glyph-name="slash" unicode="/" horiz-adv-x="375" 
d="M32 15l260 699q13 -2 28.5 -9.5t25.5 -15.5l-259 -698q-37 6 -55 24z" />
    <glyph glyph-name="zero" unicode="0" horiz-adv-x="609" 
d="M536.5 116q-35.5 -60 -96 -92.5t-132.5 -32.5q-74 0 -136 32.5t-98.5 92.5t-36.5 139q0 78 38.5 135t100.5 86.5t132 29.5q72 0 132 -29.5t96 -86.5t36 -135q0 -79 -35.5 -139zM176.5 172q21.5 -51 61.5 -84t92 -33q60 0 90.5 50t30.5 126q0 47 -20.5 98t-59 85t-89.5 34
q-59 0 -93 -50t-34 -125q0 -50 21.5 -101z" />
    <glyph glyph-name="one" unicode="1" horiz-adv-x="395" 
d="M263 86.5q6 -19.5 20 -27.5t43 -9q5 -21 5 -53q-58 3 -133 3q-80 0 -134 -3q0 34 6 53q28 2 42.5 10t20.5 27.5t6 56.5v214q0 37 -6 56t-20.5 26.5t-42.5 9.5q-6 24 -6 53q48 -3 134 -3q85 0 133 3q0 -26 -5 -53q-28 -2 -42.5 -9.5t-20.5 -26.5t-6 -56v-214
q0 -38 6 -57.5z" />
    <glyph glyph-name="two" unicode="2" horiz-adv-x="528" 
d="M474 27q-12 -29 -40 -29q-116 2 -192 2q-94 0 -170 -2q-9 12 -13 25t-4 32q73 69 162 145q58 51 78.5 85.5t20.5 74.5q0 44 -20 67.5t-59 23.5q-38 0 -58 -28.5t-30 -105.5q-40 0 -66 9q3 26 3 62q0 46 -5 70q73 48 185 48q82 0 128 -31t46 -97q0 -46 -25.5 -79.5
t-95.5 -91.5l-26 -22q-15 -14 -36.5 -32t-50.5 -44h123q32 0 46.5 4t20.5 15.5t9 39.5q38 0 58 -8q0 -82 11 -133z" />
    <glyph glyph-name="three" unicode="3" horiz-adv-x="512" 
d="M445 451q-88 -110 -168 -214q53 1 96 -20.5t68.5 -64.5t25.5 -103q0 -62 -32.5 -112t-94 -79t-144.5 -29q-49 0 -89 12.5t-64 33.5q2 25 20 43q42 -30 120 -30q40 0 76.5 17t59 49.5t22.5 77.5q0 54 -32.5 87.5t-93.5 33.5q-17 0 -32 -6q-9 9 -14.5 22t-5.5 24
q104 130 158 205h-109q-31 0 -46.5 -5t-26 -20t-21.5 -47q-35 0 -54 15q8 38 10 72.5t2 89.5q54 -3 183 -3q117 0 171 3q18 -20 15 -52z" />
    <glyph glyph-name="four" unicode="4" horiz-adv-x="602" 
d="M542 0h-95v-149q-25 0 -57.5 -7.5t-47.5 -14.5q-15 12 -15 41v130h-13q-106 0 -255 -7q-22 36 -22 66l339 447q38 2 71 -9v-395h77q26 0 38 -15q-20 -42 -20 -87zM327 102v252l-173 -252h173z" />
    <glyph glyph-name="five" unicode="5" horiz-adv-x="481" 
d="M307 500q51 0 51 50q19 6 57 6q-7 -49 -7 -143q-9 -22 -46 -22q-172 0 -206 -3l-21 -88q150 -28 223 -83.5t73 -155.5q0 -73 -38.5 -125.5t-98.5 -79.5t-121 -27q-41 0 -72.5 8t-48.5 21q0 26 15 44q12 -6 37.5 -10t55.5 -4q62 0 103.5 39.5t41.5 105.5q0 69 -61.5 111
t-158.5 55q-19 16 -21 41l61 263q69 -3 182 -3z" />
    <glyph glyph-name="six" unicode="6" horiz-adv-x="529" 
d="M440.5 346.5q51.5 -48.5 51.5 -134.5q0 -69 -31.5 -119t-83 -76t-110.5 -26q-113 0 -172.5 62.5t-59.5 186.5q0 139 60 227t148 127.5t178 43.5q12 -15 11 -43q-118 -25 -182 -81.5t-84 -160.5q37 22 68.5 32t64.5 10q90 0 141.5 -48.5zM348.5 87q25.5 38 25.5 91
t-19.5 87.5t-48.5 49.5t-60 15q-45 0 -86 -25q-3 -28 -3 -62q0 -68 18.5 -112t45.5 -63t54 -19q48 0 73.5 38z" />
    <glyph glyph-name="seven" unicode="7" horiz-adv-x="481" 
d="M124 -158.5q-8 12.5 -8 36.5q0 92 54.5 210.5t166.5 301.5h-134q-32 0 -49.5 -5.5t-28.5 -20.5t-20 -46q-38 -1 -65 13q16 67 19 172q50 -3 180 -3q122 0 189 3q15 -18 17 -50q-37 -54 -73 -116t-60 -112q-39 -82 -52.5 -152t-13.5 -190q-30 -10 -56 -26t-43 -33
q-15 5 -23 17.5z" />
    <glyph glyph-name="eight" unicode="8" horiz-adv-x="528" 
d="M445.5 267q33.5 -45 33.5 -105q0 -81 -57.5 -126t-161.5 -45q-99 0 -155 41t-56 114q0 61 32 104.5t100 81.5q-54 36 -81.5 71.5t-27.5 81.5q0 70 51 111t140 41q88 0 140 -36t52 -99q0 -91 -112 -145q69 -45 102.5 -90zM211 449q21 -25 73 -56l10 -6q26 19 37.5 44
t11.5 59q0 44 -21.5 70t-58.5 26q-34 0 -53.5 -20.5t-19.5 -55.5q0 -36 21 -61zM337 69q24 25 24 66q0 48 -32 85t-99 81q-37 -29 -51.5 -59.5t-14.5 -80.5q0 -54 29 -85.5t79 -31.5q41 0 65 25z" />
    <glyph glyph-name="nine" unicode="9" horiz-adv-x="537" 
d="M445 441.5q58 -64.5 58 -195.5q0 -127 -66 -217.5t-161 -139.5t-182 -59q-7 9 -9.5 20t-2.5 27q121 40 192.5 102.5t96.5 151.5q-58 -38 -128 -38q-59 0 -106 24t-73.5 67t-26.5 99q0 73 32.5 123.5t85.5 75t116 24.5q116 0 174 -64.5zM381 186q3 24 3 50q0 109 -33 162
t-92 53q-45 0 -73.5 -38.5t-28.5 -96.5q0 -83 42 -119t99 -36q44 0 83 25z" />
    <glyph glyph-name="colon" unicode=":" horiz-adv-x="261" 
d="M78.5 317q-18.5 18 -18.5 48t21 49.5t53 19.5q30 0 48.5 -20t18.5 -44q0 -32 -20 -51.5t-51 -19.5q-33 0 -51.5 18zM78.5 34q-18.5 18 -18.5 48t21 49.5t53 19.5q30 0 48.5 -20t18.5 -44q0 -32 -20 -51.5t-51 -19.5q-33 0 -51.5 18z" />
    <glyph glyph-name="semicolon" unicode=";" horiz-adv-x="278" 
d="M94.5 317q-18.5 18 -18.5 48t21 49.5t53 19.5q30 0 48.5 -20t18.5 -44q0 -32 -20 -51.5t-51 -19.5q-33 0 -51.5 18zM187 -82q-30 -58 -79 -104q-13 1 -25 6t-20 13q31 35 48 67.5t17 58.5q0 43 -54 50q0 44 11 75q57 8 92 31q21 -8 30.5 -27t9.5 -55q0 -57 -30 -115z" />
    <glyph glyph-name="less" unicode="&#x3c;" 
d="M63 228q-2 7 -2 21q0 23 12 44l355 211q17 -5 29 -14t22 -25l-350 -205l336 -178q2 -14 2 -22q0 -35 -13 -49q-193 116 -391 217z" />
    <glyph glyph-name="equal" unicode="=" 
d="M57.5 343q3.5 17 8.5 27h430q0 -37 -11 -59q-79 1 -203 1q-138 0 -228 -2q0 16 3.5 33zM56.5 172.5q2.5 17.5 8.5 27.5h432q0 -39 -11 -60q-79 1 -204 1q-139 0 -228 -2q0 16 2.5 33.5z" />
    <glyph glyph-name="greater" unicode="&#x3e;" 
d="M487 264q0 -22 -12 -42q-94 -48 -168 -91t-203 -121q-18 18 -18 52q0 8 1 12l334 186l-346 205q18 32 51 43l359 -226q2 -12 2 -18z" />
    <glyph glyph-name="question" unicode="?" horiz-adv-x="537" 
d="M409 682q45 -33 45 -93q0 -45 -19 -78t-56 -74q-38 -43 -56.5 -75t-18.5 -77q0 -15 3.5 -36t8.5 -37q-21 -11 -51 -11q-20 14 -35 49t-15 75q0 47 17.5 78t50.5 67q27 30 40.5 53t13.5 53q0 40 -21 64t-50 24q-34 0 -53 -30t-27 -101q-43 0 -69 14q3 38 3 67q0 27 -3 57
q74 44 168 44q79 0 124 -33zM225 11.5q-21 20.5 -21 54.5q0 35 23.5 57t60.5 22q34 0 55.5 -22.5t21.5 -50.5q0 -37 -22.5 -59t-58.5 -22q-38 0 -59 20.5z" />
    <glyph glyph-name="at" unicode="@" horiz-adv-x="998" 
d="M855 -68q-45 -63 -134.5 -98.5t-196.5 -35.5q-137 0 -229 54.5t-137 151t-45 224.5q0 121 50.5 219.5t146.5 155.5t227 57q114 0 192.5 -40.5t117.5 -110t39 -156.5q0 -103 -33.5 -186t-88 -129.5t-113.5 -46.5q-76 0 -76 98v49q-24 -69 -61.5 -108t-85.5 -39
q-131 0 -131 209q0 77 25 138t69 95t99 34q54 0 99 -10q46 0 75 10q15 -6 19.5 -23.5t4.5 -72.5v-178q0 -53 2.5 -76t9 -30.5t22.5 -7.5q19 0 44 30.5t42.5 89.5t17.5 140q0 75 -33 136.5t-101 98t-167 36.5q-110 0 -187 -48t-115.5 -133t-38.5 -193q0 -105 39 -192.5
t118.5 -139.5t196.5 -52q85 0 157.5 27.5t123.5 83.5q26 -6 36 -31zM510 108q22 28 41 82t27 128l2 69q-38 26 -81 26q-45 0 -64.5 -40.5t-19.5 -140.5q0 -79 15 -115.5t40 -36.5q18 0 40 28z" />
    <glyph glyph-name="A" unicode="A" horiz-adv-x="708" 
d="M687 -3q-39 3 -126 3q-93 0 -131 -3q0 34 8 53q25 3 36.5 10t11.5 21q0 15 -14 46l-33 78q-155 0 -254 -5l-20 -52q-13 -33 -13 -55q0 -20 12 -30.5t37 -12.5q8 -24 8 -53q-34 3 -102 3q-29 0 -86 -3q0 31 8 52q26 5 40.5 25.5t39.5 80.5l208 522q21 5 49 5l234 -530
q19 -42 31 -62.5t22.5 -29t26.5 -10.5q7 -24 7 -53zM417 256l-65 152q-27 60 -46 119q-18 -58 -41 -119l-58 -152h210z" />
    <glyph glyph-name="B" unicode="B" horiz-adv-x="648" 
d="M600 196q0 -89 -64 -142.5t-197 -53.5q-192 0 -290 -3q0 37 6 53q28 2 42.5 10t20.5 29.5t6 62.5v381q0 37 -6 56t-20.5 27t-42.5 10q-5 18 -5 53q39 -3 105 -3q53 0 82 1l85 1q113 0 172 -34t59 -114q0 -64 -40 -108t-109 -54q196 -12 196 -172zM384.5 594.5
q-39.5 30.5 -94.5 30.5q-20 0 -43 -6v-241h32q145 0 145 122q0 64 -39.5 94.5zM429 86.5q33 34.5 33 96.5q0 143 -191 143h-24v-177q0 -42 8 -62.5t26 -27.5t52 -7q63 0 96 34.5z" />
    <glyph glyph-name="C" unicode="C" horiz-adv-x="648" 
d="M191 35.5q-74 44.5 -115 124.5t-41 182q0 110 47 187.5t124 116.5t166 39q59 0 112.5 -13t108.5 -39q-11 -57 -11 -155q-21 -10 -66 -10q-2 93 -36.5 129.5t-100.5 36.5q-107 0 -159 -76t-52 -189q0 -88 28 -158t82 -110t129 -40q44 0 90 14t88 40q7 -6 13 -17t8 -20
q-55 -44 -113 -65.5t-133 -21.5q-95 0 -169 44.5z" />
    <glyph glyph-name="D" unicode="D" horiz-adv-x="733" 
d="M593.5 609.5q104.5 -68.5 104.5 -254.5q0 -148 -65.5 -226.5t-148.5 -103.5t-162 -25q-199 0 -273 -3q0 37 6 53q28 2 42.5 10t20.5 29.5t6 62.5v381q0 37 -6 56t-20.5 27t-42.5 10q-5 18 -5 53q53 -3 159 -3q36 0 54 1l60 1q166 0 270.5 -68.5zM503.5 116.5
q63.5 63.5 63.5 222.5q0 151 -72.5 221t-182.5 70q-38 0 -65 -10v-467q0 -41 7 -62t25.5 -29.5t54.5 -8.5q106 0 169.5 63.5z" />
    <glyph glyph-name="E" unicode="E" horiz-adv-x="614" 
d="M580 155q-22 -68 -31 -157q-90 2 -227 2q-199 0 -273 -3q0 37 6 53q28 2 42 10t20 29t6 63v381q0 37 -6 56t-20.5 27t-42.5 10q-5 18 -5 53q68 -3 196 -3q161 0 278 3q10 -113 21 -164q-22 -13 -60 -13q-6 57 -40 90.5t-117 33.5h-81v-261h46q58 0 80 16.5t23 62.5
q24 8 59 8q-3 -49 -3 -111q0 -67 3 -117q-37 0 -57 6q-4 49 -26 66t-79 17h-46v-160q0 -41 7.5 -62t26 -29.5t54.5 -8.5h9q59 0 92.5 14t51 40t33.5 75q39 -7 60 -27z" />
    <glyph glyph-name="F" unicode="F" horiz-adv-x="577" 
d="M246 626v-285h59q58 0 79.5 16.5t22.5 61.5q24 9 59 9q-2 -34 -2 -111q0 -85 2 -117q-35 0 -57 6q-4 49 -25.5 66t-78.5 17h-59v-128q0 -43 9.5 -66.5t29.5 -33t56 -11.5q6 -17 6 -53q-49 3 -144 3q-107 0 -154 -3q0 37 5 53q28 2 42.5 10t20.5 27t6 57v389q0 37 -6 56
t-20 27t-42 10q-6 21 -6 53q74 -3 195 -3q162 0 279 3q7 -106 21 -164q-22 -13 -60 -13q-7 58 -40.5 91t-116.5 33h-81z" />
    <glyph glyph-name="G" unicode="G" horiz-adv-x="722" 
d="M194 34.5q-76 43.5 -117.5 123.5t-41.5 188q0 107 47.5 183.5t127 116t175.5 39.5q67 0 129.5 -13t109.5 -35q-11 -57 -11 -155q-24 -11 -66 -11q-4 92 -44 127.5t-114 35.5q-73 0 -123 -36.5t-74 -97t-24 -132.5q0 -91 25.5 -163.5t75.5 -114t120 -41.5q27 0 46 2.5
t37 9.5t25.5 22.5t7.5 51.5v46q0 43 -6 61t-22 24.5t-54 7.5q-6 20 -6 55q29 -3 127 -3q97 0 124 2q0 -35 -6 -54q-20 -1 -29 -7t-12 -23.5t-3 -58.5v-39q0 -28 2.5 -45.5t11.5 -33.5q-47 -34 -114.5 -55t-146.5 -21q-101 0 -177 43.5z" />
    <glyph glyph-name="H" unicode="H" horiz-adv-x="767" 
d="M650 87q6 -19 20 -27t42 -10q6 -19 6 -53q-55 3 -132 3q-83 0 -140 -3q0 30 7 53q28 2 42 10t19.5 27t5.5 57v177q-205 0 -274 -7v-170q0 -38 6 -57t20 -27t42 -10q6 -16 6 -53q-55 3 -131 3q-84 0 -140 -3q0 34 6 53q28 2 42 10t20 27t6 57v389q0 37 -6 56t-20 27
t-42 10q-6 21 -6 53q54 -3 137 -3q74 0 134 3q0 -15 -1 -29t-5 -24q-28 -2 -42 -10t-20 -27t-6 -56v-159h274v159q0 37 -5.5 56t-19.5 27t-42 10q-7 20 -7 53q54 -3 138 -3q74 0 134 3q0 -35 -6 -53q-28 -2 -42 -10t-20 -27t-6 -56v-389q0 -38 6 -57z" />
    <glyph glyph-name="I" unicode="I" horiz-adv-x="369" 
d="M117 589q-6 19 -20 27t-42 10q-6 21 -6 53q54 -3 137 -3q74 0 134 3q0 -15 -1 -29t-5 -24q-28 -2 -42 -10t-20 -27t-6 -56v-389q0 -38 6 -57t20 -27t42 -10q6 -16 6 -53q-55 3 -131 3q-84 0 -140 -3q0 34 6 53q28 2 42 10t20 27t6 57v389q0 37 -6 56z" />
    <glyph glyph-name="J" unicode="J" horiz-adv-x="347" 
d="M219.5 -38.5q-15.5 -64.5 -61.5 -115.5t-137 -95q-20 13 -23 39q59 47 86 102.5t27 149.5v490q0 38 -5.5 57t-19.5 27t-42 10q-7 20 -7 53q50 -3 136 -3q91 0 136 3q0 -36 -6 -53q-28 -2 -42 -10t-20 -27.5t-6 -56.5v-404q0 -102 -15.5 -166.5z" />
    <glyph glyph-name="K" unicode="K" horiz-adv-x="703" 
d="M606 77q29 -21 78 -25q0 -33 -7 -52q-128 0 -185 -7q-39 70 -110 166.5t-136 160.5v-176q0 -38 6 -57t20 -27t42 -10q6 -16 6 -53q-55 3 -131 3q-84 0 -140 -3q0 34 6 53q28 2 42 10t20 27t6 57v389q0 37 -6 56t-20 27t-42 10q-6 21 -6 53q54 -3 137 -3q74 0 134 3
q0 -15 -1 -29t-5 -24q-28 -2 -42 -10t-20 -27t-6 -56v-173l174 181q40 41 40 64q0 19 -31 21q-6 19 -6 53q34 -3 106 -3q77 0 117 3q0 -34 -8 -53q-36 -2 -67.5 -19.5t-74.5 -63.5l-147 -156q76 -79 190 -236q38 -53 67 -74z" />
    <glyph glyph-name="L" unicode="L" horiz-adv-x="583" 
d="M422 65.5q30 12.5 48.5 39.5t34.5 77q40 -7 60 -27q-20 -60 -31 -157q-88 2 -212 2q-199 0 -273 -3q0 37 6 53q28 2 42.5 10t20.5 29.5t6 62.5v381q0 37 -6 56t-20.5 27t-42.5 10q-5 18 -5 53q67 -3 135 -3q76 0 136 3q0 -36 -6 -53q-28 -2 -42 -10t-20 -27.5t-6 -57.5
v-378q0 -41 7 -62t25.5 -29.5t54.5 -8.5h9q49 0 79 12.5z" />
    <glyph glyph-name="M" unicode="M" horiz-adv-x="950" 
d="M922 -3q-45 3 -141 3q-84 0 -131 -3q0 31 7 53q37 4 50 17t13 48q0 22 -3 53l-34 324l-202 -494q-18 -7 -50 -7l-227 499l-30 -295q-4 -46 -4 -59q0 -47 15.5 -65.5t51.5 -20.5q6 -20 6 -53q-43 3 -108 3q-69 0 -107 -3q0 33 6 53q28 2 43 14.5t24 43.5t15 93l30 325
q1 10 1 27q0 41 -15 57t-52 16q-6 19 -6 53q34 -3 94 -3q55 0 93 3l231 -519l200 519q40 -3 96 -3q51 0 93 3q0 -33 -6 -53q-35 0 -52 -16.5t-17 -59.5q0 -9 2 -29l34 -341q5 -53 13 -79.5t21.5 -37t39.5 -12.5q6 -25 6 -54z" />
    <glyph glyph-name="N" unicode="N" horiz-adv-x="733" 
d="M695 679q0 -35 -5 -53q-24 -1 -36.5 -13.5t-18 -42.5t-5.5 -86v-484q-22 -7 -57 -7l-393 519v-316q0 -58 6 -88.5t21.5 -43.5t44.5 -14q6 -18 6 -53q-45 3 -105 3q-72 0 -108 -3q0 34 5 53q29 1 44.5 14t22 43.5t6.5 88.5v391l-7 9q-13 16 -25.5 22t-40.5 8q-5 21 -5 53
q32 -3 90 -3q49 0 80 3l357 -478v283q0 57 -6 86.5t-21.5 42t-45.5 13.5q-6 28 -6 53q44 -3 104 -3q59 0 98 3z" />
    <glyph glyph-name="O" unicode="O" horiz-adv-x="739" 
d="M193.5 36q-75.5 45 -117 124.5t-41.5 179.5q0 102 43.5 180t119.5 121.5t171 43.5q97 0 173.5 -43t119 -120t42.5 -178q0 -100 -42.5 -180.5t-118.5 -126.5t-174 -46q-100 0 -175.5 45zM486 83q42 35 64.5 96.5t22.5 139.5q0 86 -28.5 157t-79.5 112.5t-115 41.5
q-53 0 -95 -32.5t-65.5 -92.5t-23.5 -139q0 -85 26 -157.5t76 -116.5t119 -44q57 0 99 35z" />
    <glyph glyph-name="P" unicode="P" horiz-adv-x="612" 
d="M411.5 333q35.5 35 35.5 118q0 81 -37.5 127t-115.5 46q-23 0 -48 -6v-457q0 -43 9.5 -66.5t29.5 -33t56 -11.5q6 -17 6 -53q-49 3 -145 3q-106 0 -153 -3q0 37 5 53q28 2 42.5 10t20.5 27t6 57v389q0 37 -6 56t-20 27t-42 10q-6 21 -6 53q55 -3 143 -3l85 1q26 1 62 1
q125 0 181.5 -54.5t56.5 -143.5q0 -64 -27 -118.5t-80 -87t-127 -32.5q-42 0 -70 11q-2 12 -2 19q0 16 6 31q17 -5 44 -5q55 0 90.5 35z" />
    <glyph glyph-name="Q" unicode="Q" horiz-adv-x="739" 
d="M547 -9q23 -13 53 -33q42 -27 73.5 -40.5t74.5 -13.5q15 0 23 1q0 -30 -7 -52q-74 -16 -141 -47q-37 11 -61.5 33t-51.5 58q-33 42 -62 65t-79 29q-100 0 -175.5 45t-117 124.5t-41.5 179.5q0 102 43.5 180t119.5 121.5t171 43.5q97 0 173.5 -43t119 -120t42.5 -178
q0 -116 -56 -204.5t-153 -126.5q29 -9 52 -22zM192 208.5q26 -72.5 76 -116.5t119 -44q57 0 99 35t64.5 96.5t22.5 139.5q0 86 -28.5 157t-79.5 112.5t-115 41.5q-53 0 -95 -32.5t-65.5 -92.5t-23.5 -139q0 -85 26 -157.5z" />
    <glyph glyph-name="R" unicode="R" horiz-adv-x="693" 
d="M587.5 88.5q14.5 -17.5 33.5 -25.5t51 -10q0 -33 -6 -53q-116 0 -176 -9q-31 54 -50 94.5t-23 49.5q-29 56 -51 89t-60 70l-31 -1l-29 1v-148q0 -39 5.5 -59t18.5 -28t38 -9q5 -16 5 -53q-42 3 -134 3q-79 0 -130 -3q0 35 6 53q28 2 42 10t20 27t6 57v389q0 38 -6 57.5
t-20.5 27.5t-42.5 9q-5 19 -5 52q37 -3 134 -3l79 1q64 2 99 2q112 0 169.5 -48.5t57.5 -125.5q0 -72 -43.5 -121t-118.5 -68q35 -30 58.5 -63t68.5 -112q20 -35 34.5 -52.5zM286 347q76 0 124.5 36.5t48.5 107.5q0 64 -36.5 99.5t-111.5 35.5q-31 0 -65 -8v-268
q24 -3 40 -3z" />
    <glyph glyph-name="S" unicode="S" horiz-adv-x="555" 
d="M161 6.5q-50 15.5 -104 46.5q10 57 10 150q29 8 73 8q5 -85 37 -124t104 -39q60 0 89.5 26.5t29.5 67.5q0 33 -18.5 57t-46.5 40.5t-75 38.5q-61 28 -99 52.5t-64.5 65.5t-26.5 102q0 89 58 138t155 49q51 0 100 -12.5t78 -31.5q0 -96 6 -137q-25 -13 -73 -13
q-14 80 -41 110t-75 30t-75.5 -23t-27.5 -65q0 -35 19.5 -60t48.5 -42t79 -41q61 -29 99 -53t64.5 -63.5t26.5 -96.5q0 -56 -26.5 -100t-80.5 -70t-133 -26q-61 0 -111 15.5z" />
    <glyph glyph-name="T" unicode="T" horiz-adv-x="622" 
d="M597 511q-28 -12 -65 -11q-5 63 -31.5 93t-81.5 30h-44v-479q0 -38 6.5 -57t23.5 -27t53 -10q7 -18 7 -53q-63 3 -149 3q-100 0 -159 -3q0 35 7 53q36 2 54 10t25.5 27t7.5 57v479h-37q-43 0 -67.5 -14t-36.5 -39.5t-22 -69.5q-43 0 -63 10q19 97 19 169q63 -3 271 -3
t271 3q-3 -71 11 -168z" />
    <glyph glyph-name="U" unicode="U" horiz-adv-x="681" 
d="M565 130q-12 -50 -46 -83q-56 -56 -166 -56q-94 0 -148.5 26.5t-78 79.5t-23.5 136v299q0 39 -5 57.5t-17 25.5t-39 11q-6 19 -6 53q40 -3 121 -3q95 0 142 3q0 -32 -5 -53q-31 -3 -44.5 -10t-18.5 -25.5t-5 -58.5v-284q0 -94 35.5 -145t118.5 -51q27 0 54.5 9.5
t45.5 29.5q22 23 30.5 61t8.5 116v229q0 50 -5.5 76t-19.5 38t-43 15q-5 28 -5 53q36 -3 99 -3q59 0 98 3q0 -27 -6 -53q-24 -3 -37 -14.5t-18 -37t-5 -74.5v-229q0 -91 -12 -141z" />
    <glyph glyph-name="V" unicode="V" horiz-adv-x="692" 
d="M671 679q0 -27 -6 -53q-28 -6 -46 -31.5t-39 -81.5q-118 -301 -208 -514q-19 -6 -54 -6q-110 297 -206 517q-23 53 -34.5 75t-22 30.5t-28.5 10.5q-6 20 -6 53q42 -3 133 -3q66 0 134 3q0 -30 -6 -53q-30 -2 -43.5 -9.5t-13.5 -25.5q0 -20 22 -72q79 -188 135 -355
q86 199 140 353q12 33 12 57q0 46 -51 52q-6 19 -6 53q41 -3 93 -3q62 0 101 3z" />
    <glyph glyph-name="W" unicode="W" horiz-adv-x="998" 
d="M977 679q0 -33 -7 -53q-18 -5 -30.5 -18t-24 -41t-29.5 -85l-150 -484q-20 -7 -59 -7q-82 233 -184 494l-165 -488q-24 -6 -60 -6q-92 304 -163 515q-19 58 -29.5 80.5t-20 29.5t-29.5 9q-5 21 -5 54q48 -3 128 -3q76 0 135 3q0 -30 -6 -53q-34 -2 -47.5 -10t-13.5 -27
q0 -21 17 -70q59 -177 101 -326l166 485q18 6 56 6q89 -233 183 -496l92 296q15 50 15 78q0 30 -15.5 44.5t-48.5 19.5q-8 21 -8 53q42 -3 103 -3q58 0 99 3z" />
    <glyph glyph-name="X" unicode="X" horiz-adv-x="685" 
d="M650 -3q-43 3 -140 3q-77 0 -137 -2q0 30 5 52q22 2 32.5 7.5t10.5 18.5q0 23 -39 88q-27 47 -66 109l-72 -106q-20 -30 -29.5 -49.5t-9.5 -32.5q0 -14 11.5 -22t36.5 -13q6 -20 6 -53q-51 3 -115 3q-69 0 -110 -3q0 34 7 55q32 8 62 32.5t67 74.5l115 165
q-44 71 -119 185q-35 53 -52 75.5t-28.5 30t-29.5 10.5q-7 22 -7 54q52 -3 146 -3q66 0 128 2q0 -29 -5 -52q-23 -4 -33.5 -11t-10.5 -21q0 -22 32 -71l53 -81l20 -31l63 99q36 59 36 83q0 15 -11.5 22.5t-34.5 10.5q-6 20 -6 53q50 -3 108 -3q66 0 103 3q0 -35 -5 -53
q-31 -8 -54.5 -29t-64.5 -84l-101 -154l11 -18q64 -103 98 -161q33 -54 52.5 -80.5t34.5 -36.5t35 -13q7 -21 7 -53z" />
    <glyph glyph-name="Y" unicode="Y" horiz-adv-x="631" 
d="M610 678q0 -23 -5 -50q-26 -6 -47.5 -29t-44.5 -72l-132 -272v-82q0 -54 6 -77.5t22 -32.5t55 -13q7 -20 7 -53q-72 3 -151 3q-83 0 -157 -2q0 31 7 52q42 3 59 11t23 30t6 73v90l-159 314q-16 32 -31.5 45t-40.5 14q-6 20 -6 51q66 -2 122 -2q109 0 143 2q0 -29 -5 -50
q-23 -2 -33 -9.5t-10 -21.5q0 -17 17 -51q50 -100 104 -226q49 115 99 217q18 36 18 55q0 15 -11 23.5t-34 11.5q-8 26 -8 51q27 -2 99 -2q38 0 88 2z" />
    <glyph glyph-name="Z" unicode="Z" horiz-adv-x="619" 
d="M565 161q-8 -34 -14 -79.5t-7 -84.5q-93 3 -260 3q-153 0 -222 -3q-12 21 -12 43l17 28q85 141 171 286t157 272h-117q-43 0 -67.5 -10t-40.5 -38t-27 -84q-51 0 -71 11q10 35 15.5 82t5.5 91q86 -2 241 -2q132 0 200 2q12 -17 14 -43q-157 -289 -341 -584h121
q59 0 90.5 10t49 37t29.5 83q40 -3 68 -20z" />
    <glyph glyph-name="bracketleft" unicode="[" horiz-adv-x="283" 
d="M130 740q63 0 103 2q12 -16 12 -50q-56 -5 -80.5 -12t-34 -24.5t-9.5 -55.5v-740q0 -32 11 -47.5t34 -21.5t68 -8q6 -11 8.5 -22.5t2.5 -29.5q-33 2 -100 2q-72 0 -110 -2v1011q35 -2 95 -2z" />
    <glyph glyph-name="backslash" unicode="\" horiz-adv-x="387" 
d="M91 711l264 -711q-15 -6 -47 -6q-11 0 -14 1l-265 714q11 5 40 5q14 0 22 -3z" />
    <glyph glyph-name="bracketright" unicode="]" horiz-adv-x="283" 
d="M138 -267q-67 0 -100 -2q0 18 2.5 29.5t8.5 22.5q45 2 68 8t34 21.5t11 47.5v740q0 38 -9.5 55.5t-34 24.5t-80.5 12q0 34 12 50q40 -2 103 -2q60 0 95 2v-1011q-38 2 -110 2z" />
    <glyph glyph-name="asciicircum" unicode="^" 
d="M74 379q-28 22 -34 53l205 257q24 12 60 9q44 -67 102 -151t102 -143q-17 -14 -49 -14q-9 0 -14 1l-170 243q-125 -147 -202 -255z" />
    <glyph glyph-name="underscore" unicode="_" 
d="M40 -86h482q0 -14 -3 -31.5t-9 -27.5q-74 1 -131 1h-116l-157 -1l-78 -1q0 37 12 60z" />
    <glyph glyph-name="grave" unicode="`" horiz-adv-x="300" 
d="M57 699q35 16 83 16q12 0 32 -2q26 -89 70 -172q-17 -9 -57 -7q-64 99 -128 165z" />
    <glyph glyph-name="a" unicode="a" horiz-adv-x="523" 
d="M491 64q0 -22 -8 -41q-31 -2 -66 -10.5t-63 -21.5q-14 5 -21 19t-7 39q0 15 3 33q-14 -34 -39 -54q-40 -35 -111 -35q-65 0 -100.5 28.5t-35.5 80.5q0 85 78 120.5t191 51.5q0 52 -4 75t-17 39q-23 27 -59 27q-42 0 -61.5 -34t-22.5 -80q-47 0 -68 9q2 24 2 38
q0 43 -7 77q41 19 91 30.5t94 11.5q84 0 127 -41q23 -24 33 -63t10 -107v-98q0 -32 4.5 -48t17 -23t38.5 -9zM312 226q-71 -10 -109 -30.5t-38 -69.5q0 -31 15 -47t38 -16q22 0 44 14.5t36 44t14 72.5v32z" />
    <glyph glyph-name="b" unicode="b" horiz-adv-x="575" 
d="M487 413.5q51 -53.5 51 -162.5q0 -74 -32.5 -133t-92 -93t-136.5 -34q-70 0 -128.5 19.5t-90.5 50.5q12 14 17.5 41t5.5 77v386q0 26 -5.5 40.5t-21.5 22t-48 8.5q0 31 10 47q37 0 87.5 10.5t69.5 23.5q25 -10 25 -47v-236q0 -24 -4 -54q9 15 17 23q18 24 54.5 44
t80.5 20q90 0 141 -53.5zM372 86.5q41 42.5 41 146.5q0 52 -14.5 88.5t-38 54.5t-49.5 18q-47 0 -80 -44t-33 -136v-135q17 -17 36.5 -26t44.5 -9q52 0 93 42.5z" />
    <glyph glyph-name="c" unicode="c" horiz-adv-x="457" 
d="M149 17.5q-51 26.5 -81.5 80t-30.5 129.5q0 62 25.5 117t76 89t119.5 34q98 0 159 -43q-9 -50 -9 -119q-20 -11 -62 -11q-4 57 -29 88t-64 31q-45 0 -71 -46t-26 -125q0 -76 36.5 -130t102.5 -54q32 0 60 12.5t48 35.5q20 -14 25 -38q-55 -77 -167 -77q-61 0 -112 26.5z
" />
    <glyph glyph-name="d" unicode="d" horiz-adv-x="588" 
d="M547 23q-32 -2 -68 -10.5t-64 -21.5q-15 6 -21.5 17.5t-6.5 40.5q0 24 7 52q-13 -24 -30 -46q-18 -24 -54.5 -44t-80.5 -20q-90 0 -141 53.5t-51 162.5q0 74 33 133t92.5 93t136.5 34q33 0 78 -12v110q0 26 -5.5 40.5t-21.5 22t-48 8.5q0 31 10 47q37 0 87.5 10.5
t69.5 23.5q26 -10 26 -47v-517q0 -30 4 -45.5t17 -22.5t39 -7q2 -35 -8 -55zM344 108q33 44 33 136v135q-17 17 -36.5 26t-44.5 9q-52 0 -93 -42.5t-41 -146.5q0 -52 14.5 -88.5t38 -54.5t49.5 -18q47 0 80 44z" />
    <glyph glyph-name="e" unicode="e" horiz-adv-x="494" 
d="M443.5 92q7.5 -12 8.5 -24q-36 -40 -82 -58.5t-105 -18.5q-112 0 -170 66t-58 171q0 68 27 122t77 85.5t116 31.5q98 0 146 -57t53 -153q-6 -25 -20 -41q-154 0 -274 -6q7 -69 40.5 -111t100.5 -42q34 0 67 13.5t57 38.5q9 -5 16.5 -17zM188 377.5q-25 -34.5 -28 -109.5
h175q0 67 -22 105.5t-61 38.5t-64 -34.5z" />
    <glyph glyph-name="f" unicode="f" horiz-adv-x="369" 
d="M439 565q-27 -10 -74 -10q0 45 -17.5 72t-52.5 27t-50 -33t-15 -104v-69h106q0 -37 -10 -56q-57 0 -96 -12v-219q0 -43 9 -66.5t29 -33t56 -11.5q7 -16 7 -53q-49 3 -141 3q-104 0 -152 -3q0 37 6 53q28 2 42 10t20 27t6 57v240q-41 10 -78 10q0 35 14 54h64v37
q0 74 30.5 126t80.5 78t110 26q64 0 110 -27q-6 -60 -4 -123z" />
    <glyph glyph-name="g" unicode="g" horiz-adv-x="531" 
d="M445.5 46q43.5 -25 43.5 -90q0 -51 -34.5 -98.5t-96.5 -77t-140 -29.5q-97 0 -140 33t-43 96q0 35 19 62t55 42q-24 11 -35 30t-11 49q0 58 56 109q-69 43 -69 130q0 74 50.5 119.5t142.5 45.5q40 0 70 -9h177q8 -25 8 -70q-43 13 -96 18q22 -23 33.5 -51t11.5 -53
q0 -71 -52 -116.5t-148 -45.5q-40 0 -73 9q-21 -21 -21 -39q0 -17 13.5 -25t43.5 -10.5t94 -2.5q98 -1 141.5 -26zM187.5 389q-18.5 -29 -18.5 -74q0 -59 24 -91t67 -32q32 0 50.5 26.5t18.5 75.5q0 55 -24 89.5t-65 34.5q-34 0 -52.5 -29zM346.5 -161.5
q37.5 27.5 37.5 68.5q0 23 -11.5 35t-42 17.5t-89.5 5.5q-40 0 -77 5q-15 -15 -21 -30.5t-6 -35.5q0 -48 25 -70.5t84 -22.5q63 0 100.5 27.5z" />
    <glyph glyph-name="h" unicode="h" horiz-adv-x="626" 
d="M592 -3q-45 3 -118 3q-38 0 -131 -3q0 36 7 53q33 0 48 20t15 70v129q0 63 -22 89.5t-63 26.5q-27 0 -51 -18t-39 -54.5t-15 -90.5v-85q0 -50 14 -68.5t49 -18.5q7 -19 7 -53q-87 3 -129 3q-88 0 -132 -3q0 37 6 53q39 0 53.5 18.5t14.5 68.5v428q0 26 -5.5 40.5
t-21.5 22t-48 8.5q0 31 10 47q37 0 87.5 10.5t69.5 23.5q25 -10 25 -47v-253q0 -28 -8 -59q1 3 7 14.5t15 22.5q20 27 58 47t84 20q66 0 108.5 -39.5t42.5 -123.5v-162q0 -49 12.5 -68t42.5 -19q7 -21 7 -53z" />
    <glyph glyph-name="i" unicode="i" horiz-adv-x="329" 
d="M107 580.5q-20 18.5 -20 45.5q0 31 21 50t52 19q34 0 53.5 -18t19.5 -50q0 -27 -21 -46t-54 -19q-31 0 -51 18.5zM42 50q40 1 54 19t14 68v178q0 26 -5.5 40.5t-21.5 22t-48 8.5q0 31 10 47q37 0 87.5 10.5t69.5 23.5q25 -10 25 -47v-283q0 -49 13.5 -67.5t47.5 -19.5
q6 -19 6 -53q-48 3 -128 3q-85 0 -130 -3q0 35 6 53z" />
    <glyph glyph-name="j" unicode="j" horiz-adv-x="297" 
d="M106 580.5q-20 18.5 -20 45.5q0 31 21 50t52 19q34 0 53.5 -18t19.5 -50q0 -27 -21 -46t-54 -19q-31 0 -51 18.5zM23 -233q-8 11 -9 25q54 60 74 109.5t20 122.5v291q0 26 -5 40.5t-21 22t-48 8.5q0 31 10 47q37 0 87 10.5t69 23.5q26 -10 26 -47v-373q0 -104 -54 -179.5
t-129 -116.5q-12 5 -20 16z" />
    <glyph glyph-name="k" unicode="k" horiz-adv-x="578" 
d="M509 66q18 -11 50 -14q0 -33 -8 -52q-88 0 -145 -9q-27 43 -79 108t-104 121v-83q0 -49 12 -67.5t43 -19.5q6 -19 6 -53q-48 3 -124 3q-83 0 -128 -3q0 35 6 53q40 1 54 19t14 68v428q0 26 -5.5 40.5t-21.5 22t-48 8.5q0 31 10 47q37 0 87.5 10.5t69.5 23.5
q25 -10 25 -47v-413l72 66q56 49 56 70q0 15 -28 16q-8 27 -8 51q38 -2 123 -2q60 0 94 2q0 -28 -9 -52q-34 -2 -61 -14.5t-63 -45.5l-79 -72q56 -55 145 -166q26 -33 44 -44z" />
    <glyph glyph-name="l" unicode="l" horiz-adv-x="321" 
d="M38 50q40 1 54 19t14 68v431q0 36 -15 51.5t-60 16.5q0 31 10 47q37 0 87.5 10.5t69.5 23.5q25 -10 25 -47v-533q0 -49 13.5 -67.5t47.5 -19.5q6 -19 6 -53q-48 3 -128 3q-85 0 -130 -3q0 35 6 53z" />
    <glyph glyph-name="m" unicode="m" horiz-adv-x="929" 
d="M894 -3q-46 3 -117 3q-80 0 -131 -3q0 35 6 53q25 1 38.5 9.5t19 28.5t5.5 59v123q0 63 -21 89t-60 26q-44 0 -74 -41.5t-30 -121.5v-84q0 -50 13.5 -68t50.5 -20q6 -17 6 -53q-49 3 -128 3q-75 0 -129 -3q0 36 6 53q26 2 39.5 10t19 28.5t5.5 61.5v126q0 62 -21 87.5
t-62 25.5q-27 0 -50.5 -18.5t-38 -55.5t-14.5 -90v-87q0 -35 5.5 -53t19 -25.5t39.5 -9.5q6 -18 6 -53q-49 3 -132 3q-82 0 -129 -3q0 35 6 52q40 3 54 20.5t14 67.5v169q0 31 -5 46.5t-21 23.5t-49 10q0 26 11 47q36 2 83 12t69 22q26 -9 26 -47q0 -20 -7 -65q14 34 23 44
q21 27 58.5 47t82.5 20q46 0 81 -20t52 -61q6 -11 8 -30q10 27 24 41q21 27 56.5 46t79.5 19q70 0 110 -39.5t40 -126.5v-145q0 -41 5.5 -62t17 -28.5t33.5 -9.5q6 -18 6 -53z" />
    <glyph glyph-name="n" unicode="n" horiz-adv-x="630" 
d="M596 -3q-45 3 -118 3q-38 0 -131 -3q0 36 7 53q33 0 48 20t15 70v129q0 63 -22 89.5t-63 26.5q-27 0 -51 -18t-39 -54.5t-15 -90.5v-85q0 -50 14 -68.5t49 -18.5q7 -19 7 -53q-87 3 -128 3q-89 0 -133 -3q0 37 6 53q39 0 53.5 18.5t14.5 68.5v173q0 28 -5 43.5t-21 23.5
t-48 9q0 31 10 47q42 1 87 11.5t69 22.5q25 -10 25 -50q0 -28 -8 -59q1 3 7 14.5t15 22.5q20 27 58 47t84 20q66 0 109 -39.5t43 -123.5v-162q0 -50 12.5 -68.5t41.5 -18.5q7 -21 7 -53z" />
    <glyph glyph-name="o" unicode="o" horiz-adv-x="553" 
d="M100.5 54.5q-63.5 63.5 -63.5 172.5q0 71 31 125.5t85.5 84.5t123.5 30q113 0 176 -64.5t63 -171.5q0 -71 -30 -125t-84.5 -84.5t-126.5 -30.5q-111 0 -174.5 63.5zM364 92.5q27 45.5 27 120.5q0 61 -17 106t-45.5 69t-62.5 24q-50 0 -76.5 -44t-26.5 -116q0 -95 33 -150
t90 -55q51 0 78 45.5z" />
    <glyph glyph-name="p" unicode="p" horiz-adv-x="604" 
d="M227 3v-84q0 -43 9.5 -66.5t29.5 -33t56 -11.5q6 -17 6 -53q-50 3 -141 3q-105 0 -151 -3q0 35 5 53q28 2 42.5 10t20.5 27.5t6 56.5v408q0 28 -5 43.5t-21 23.5t-48 9q0 31 10 47q42 1 87 11.5t69 22.5q25 -10 25 -50q0 -14 -7 -42q9 17 20 28q18 24 54.5 44t80.5 20
q90 0 141 -52.5t51 -157.5q0 -77 -32.5 -137.5t-92 -94.5t-137.5 -34q-33 0 -78 12zM260 350q-33 -44 -33 -136v-135q17 -17 36.5 -26t44.5 -9q52 0 93 42.5t41 146.5q0 72 -27.5 116.5t-74.5 44.5t-80 -44z" />
    <glyph glyph-name="q" unicode="q" horiz-adv-x="574" 
d="M567 -245q-45 3 -141 3q-93 0 -144 -3q0 35 6 52q37 2 55 11t25.5 29t7.5 59v103q0 47 14 103q-16 -38 -32 -56q-22 -25 -58 -41t-75 -16q-53 0 -95.5 24.5t-67.5 72t-25 114.5q0 72 32.5 130.5t91.5 92.5t134 34q72 0 127.5 -18t92.5 -51q-11 -21 -16 -48.5t-5 -76.5
v-366q0 -40 5.5 -60t19.5 -28.5t42 -11.5q6 -18 6 -52zM320.5 83.5q23.5 16.5 39.5 54t16 96.5v145q-11 14 -33 24.5t-45 10.5q-61 0 -98.5 -49t-37.5 -140q0 -82 31.5 -120t78.5 -38q25 0 48.5 16.5z" />
    <glyph glyph-name="r" unicode="r" horiz-adv-x="449" 
d="M423.5 371q-2.5 -38 -1.5 -68q-11 -5 -31.5 -8t-38.5 -3q-2 42 -13.5 58t-33.5 16q-16 0 -34.5 -18.5t-31 -49t-12.5 -64.5v-73q0 -43 9.5 -66.5t29.5 -33t56 -11.5q6 -17 6 -53q-49 3 -141 3q-104 0 -151 -3q0 37 5 53q28 2 42.5 10t20.5 27.5t6 56.5v166q0 28 -5 43.5
t-21 23.5t-48 9q0 31 10 47q42 1 87 11.5t69 22.5q25 -10 25 -50q0 -22 -4.5 -46.5t-9.5 -48.5q3 9 10 28t13 28q23 37 54.5 59t69.5 22q37 0 70 -24q-4 -26 -6.5 -64z" />
    <glyph glyph-name="s" unicode="s" horiz-adv-x="446" 
d="M313 314q-4 42 -32 72t-72 30q-27 0 -43 -13.5t-16 -35.5q0 -17 7.5 -28.5t31.5 -25.5t75 -34q56 -22 87 -42.5t44.5 -44.5t13.5 -59q0 -65 -54.5 -103.5t-142.5 -38.5q-59 0 -97 8.5t-76 27.5q3 27 3 68q0 26 -2 56q21 14 66 14q7 -58 35.5 -88t74.5 -30q35 0 55.5 15.5
t20.5 40.5t-20 42t-82 42q-55 21 -85.5 40t-45.5 45.5t-15 67.5t25.5 69.5t66 43t84.5 14.5q48 0 84.5 -8t68.5 -25q-1 -13 -1 -40q0 -37 4 -65q-24 -15 -63 -15z" />
    <glyph glyph-name="t" unicode="t" horiz-adv-x="364" 
d="M120 25q-31 34 -31 110v247q-32 11 -73 12q0 32 10 54h63v127q26 5 52.5 17.5t44.5 27.5q12 -5 16 -15.5t4 -41.5v-115h127q0 -28 -9 -54q-66 -1 -118 -14v-226q0 -54 14 -77t41 -23q36 0 64 21q13 -18 15 -42q-18 -18 -53 -30t-70 -12q-66 0 -97 34z" />
    <glyph glyph-name="u" unicode="u" horiz-adv-x="589" 
d="M548 23q-32 -2 -68 -10.5t-64 -21.5q-15 6 -22 17.5t-7 40.5q0 19 4 43q-11 -26 -33 -48q-25 -25 -56.5 -37t-73.5 -12q-74 0 -110.5 41.5t-36.5 139.5v134q0 29 -4 44t-18 23t-43 9q0 31 8 47q41 1 82.5 11t66.5 23q25 -10 25 -50v-218q0 -68 16.5 -99.5t55.5 -31.5
q48 0 78 42.5t30 122.5v82q0 28 -5.5 43.5t-21 23.5t-47.5 9q0 17 1.5 27.5t6.5 19.5q48 1 91 9.5t67 19.5q25 -10 25 -50v-264q0 -44 11.5 -59t49.5 -16q2 -35 -8 -55z" />
    <glyph glyph-name="v" unicode="v" horiz-adv-x="543" 
d="M530 461q0 -30 -10 -53q-25 -5 -40 -24t-37 -72l-136 -310q-23 -13 -65 -11q-21 53 -74 171t-85 185q-18 36 -29.5 47t-32.5 14q-7 25 -7 53q42 -3 119 -3q87 0 135 3q0 -23 -8 -51q-31 -3 -43.5 -8.5t-12.5 -18.5t14 -41q44 -97 90 -220q29 78 56 140l18 43q15 41 15 62
q0 20 -12 30t-36 12q-11 28 -11 52q39 -3 95 -3q58 0 97 3z" />
    <glyph glyph-name="w" unicode="w" horiz-adv-x="780" 
d="M767 461q0 -30 -9 -53q-23 -6 -36.5 -26.5t-33.5 -82.5l-101 -299q-19 -9 -65 -9q-14 33 -40 99q-49 117 -85 209l-125 -299q-18 -9 -63 -9q-80 232 -131 358q-11 28 -23.5 41t-33.5 18q-7 20 -7 52q66 -2 111 -2q69 0 126 3q0 -36 -7 -53q-25 -2 -35 -8.5t-10 -19.5
q0 -11 8 -35q33 -87 68 -206l125 318q16 6 51 6q64 -146 132 -325l49 157q12 39 12 62q0 24 -12.5 35.5t-37.5 15.5q-9 26 -9 53q38 -3 90 -3q55 0 92 3z" />
    <glyph glyph-name="x" unicode="x" horiz-adv-x="545" 
d="M517 -1q-19 1 -52 1h-54q-105 0 -143 -2q0 15 1 29t4 23q36 2 36 21q0 15 -19 44l-18 28l-27 40l-33 -48q-28 -43 -28 -63t28 -22q7 -20 7 -52q-35 2 -105 2q-50 0 -85 -2q0 36 7 52q27 2 49.5 20t60.5 73l60 86q-37 57 -75 107q-35 46 -50.5 59t-38.5 15q-8 22 -8 50
q66 -2 120 -2q92 0 129 2q0 -26 -6 -50q-18 -1 -26.5 -5.5t-8.5 -13.5q0 -17 25 -52q22 -30 38 -54l36 55q24 36 24 51q0 9 -7 13t-23 6q-8 17 -8 50q56 -2 93 -2t85 2q0 -25 -7 -50q-24 -2 -39.5 -14t-42.5 -52l-71 -101l77 -108q33 -50 50 -67t38 -18q7 -17 7 -51z" />
    <glyph glyph-name="y" unicode="y" horiz-adv-x="552" 
d="M538 461q0 -35 -8 -53q-26 -7 -40.5 -25t-36.5 -70l-147 -350q-37 -90 -65.5 -135t-54 -61t-60.5 -16q-28 0 -50 9t-35 23q-3 12 -3 30q0 29 7 52q41 -9 78 -9q33 0 56.5 12.5t41.5 41.5q6 10 35 69q-97 220 -146 322q-29 62 -46.5 81.5t-42.5 25.5q-7 20 -7 52
q76 -2 124 -2q61 0 143 2q0 -31 -8 -52q-31 -5 -44.5 -14t-13.5 -26q0 -19 20 -61q39 -76 80 -187l2 4l69 174q16 39 16 63q0 21 -13 31t-41 16q-8 20 -8 52q31 -2 99 -2q69 0 99 3z" />
    <glyph glyph-name="z" unicode="z" horiz-adv-x="506" 
d="M468 18q-5 -9 -14 -14.5t-22 -5.5q-100 2 -186 2q-109 0 -181 -2q-7 10 -12 23t-5 26q54 73 132.5 184t119.5 174h-77q-34 0 -52 -8t-28.5 -29.5t-19.5 -65.5q-41 -2 -68 10q9 68 9 149q62 -3 191 -3q122 0 182 3q14 -17 14 -49q-48 -72 -123 -178t-132 -181h105
q36 0 54 9t26.5 32.5t12.5 71.5q39 0 66 -8q0 -92 8 -140z" />
    <glyph glyph-name="braceleft" unicode="{" horiz-adv-x="354" 
d="M165 -194.5q-38 53.5 -39 129.5q0 26 4 76q4 48 4 70q-1 54 -22 89.5t-77 53.5q0 28 5 40q54 18 74.5 51t21.5 82q0 17 -2 40t-3 34q-6 52 -6 80q1 69 36.5 117.5t134.5 76.5q12 -15 12 -39q-48 -16 -66.5 -47t-18.5 -75q0 -25 5 -56.5t6 -40.5q12 -66 12 -98
q0 -55 -29 -91.5t-102 -51.5q74 -17 103 -56t29 -98q0 -32 -10 -100q-10 -66 -10 -96q0 -48 19 -80t68 -47q1 -5 1 -15q0 -18 -9 -28q-103 26 -141 79.5z" />
    <glyph glyph-name="bar" unicode="|" horiz-adv-x="181" 
d="M60 701q19 12 61 12q0 -116 -1 -187l-1 -292l1 -281q1 -70 1 -185q-8 -5 -26.5 -8t-34.5 -3v944z" />
    <glyph glyph-name="braceright" unicode="}" horiz-adv-x="354" 
d="M38 -244q0 9 1 13q49 15 68.5 47t19.5 80q0 30 -10 96q-10 68 -10 100q0 59 29 98t102 56q-73 15 -101.5 51.5t-28.5 91.5q0 32 12 98q1 9 6 40.5t5 56.5q0 44 -19 75t-67 47q0 23 13 39q98 -28 134 -76.5t37 -117.5q0 -28 -6 -80q-1 -11 -3 -34t-2 -40q0 -48 21 -81.5
t75 -51.5q5 -12 5 -40q-57 -18 -78 -53.5t-21 -89.5q0 -22 4 -70q4 -50 4 -76q-1 -76 -39 -129.5t-141 -79.5q-10 13 -10 30z" />
    <glyph glyph-name="asciitilde" unicode="~" 
d="M54 200q-7 7 -10 18q68 108 142 108q23 0 46 -8t54 -24q31 -15 52 -22.5t42 -7.5q45 0 89 50q22 -3 37 -21q-66 -104 -135 -104q-23 0 -44 8.5t-52 25.5q-32 17 -51.5 25t-41.5 8q-55 0 -108 -69q-13 6 -20 13z" />
    <glyph glyph-name="uni00A0" unicode="&#xa0;" horiz-adv-x="200" 
 />
    <glyph glyph-name="exclamdown" unicode="&#xa1;" horiz-adv-x="411" 
d="M153 447.5q20 19.5 51 19.5q33 0 51.5 -18t18.5 -48t-21 -49.5t-53 -19.5q-30 0 -48.5 20t-18.5 44q0 32 20 51.5zM173 220q21 8 61 8q17 -252 44 -448q-28 -5 -64 -15.5t-56 -20.5q-21 7 -21 31q0 9 1 14q26 248 35 431z" />
    <glyph glyph-name="cent" unicode="&#xa2;" horiz-adv-x="457" 
d="M291 -7l2 -133q-16 0 -34.5 3t-26.5 8v122q-85 9 -140 69.5t-55 164.5q0 58 22.5 110t67 87t105.5 42v144q42 0 61 -12l-2 -132q77 -7 126 -42q-9 -50 -9 -119q-20 -11 -62 -11q-3 42 -17 70t-38 40v-346h4q32 0 60 12.5t48 35.5q20 -14 25 -38q-48 -66 -137 -75z
M175.5 142q19.5 -45 56.5 -67v335q-36 -11 -56 -54.5t-20 -113.5q0 -55 19.5 -100z" />
    <glyph glyph-name="sterling" unicode="&#xa3;" horiz-adv-x="568" 
d="M535 109q-28 -28 -52.5 -60t-37.5 -58q-43 0 -75 14q-14 6 -38 18q-27 15 -49.5 22.5t-54.5 7.5q-40 0 -74.5 -14.5t-67.5 -46.5q-23 11 -37 40q60 52 87.5 98.5t27.5 107.5q0 30 -6 52q-51 0 -101 -2q0 33 12 57h69q-22 48 -31.5 78t-9.5 75q0 51 24.5 93.5t72.5 68
t114 25.5q104 0 166 -34q-3 -30 -3 -64q0 -20 2 -72q-30 -14 -75 -12q-5 68 -29.5 97t-73.5 29q-35 0 -57.5 -27t-22.5 -69q0 -31 9 -54.5t26 -53.5q13 -22 21 -40t12 -40h114q0 -35 -11 -56l-103 2q-12 -88 -100 -186q76 52 132 52q25 0 45 -7t42 -19q28 -16 43 -16
q21 0 39 21q29 -3 51 -27z" />
    <glyph glyph-name="currency" unicode="&#xa4;" horiz-adv-x="542" 
d="M482 77q-17 -20 -47 -23l-58 58q-24 -17 -52 -26.5t-54 -9.5q-58 0 -104 31l-53 -53q-16 1 -26.5 5.5t-20.5 15.5l63 66q-20 24 -31 54.5t-11 62.5q0 59 33 101l-61 61q19 19 45 22l50 -48q51 38 116 38q60 0 109 -35l48 49q16 -4 25 -9t18 -16l-57 -57q35 -46 35 -106
q0 -64 -37 -113zM357 160q30 34 30 91q0 33 -16.5 64.5t-45 51t-63.5 19.5q-50 0 -80.5 -33t-30.5 -88q0 -34 17 -66t46 -52.5t63 -20.5q50 0 80 34z" />
    <glyph glyph-name="yen" unicode="&#xa5;" horiz-adv-x="631" 
d="M610 678q0 -23 -5 -50q-26 -6 -47.5 -29t-44.5 -72l-71 -146h99q0 -15 -2.5 -27t-8.5 -29l-115 1l-34 -71v-2h158q0 -28 -12 -55h-146v-25q0 -54 6 -77.5t22 -32.5t55 -13q7 -20 7 -53q-72 3 -151 3q-83 0 -157 -2q0 31 7 52q42 3 59 11t23 30t6 73v34h-159q0 33 11 55
h148v1l-36 72l-117 -1q0 35 10 56h79l-95 187q-16 32 -31.5 45t-40.5 14q-6 20 -6 51q66 -2 122 -2q109 0 143 2q0 -29 -5 -50q-23 -2 -33 -9.5t-10 -21.5q0 -17 17 -51q50 -100 104 -226q49 115 99 217q18 36 18 55q0 15 -11 23.5t-34 11.5q-8 26 -8 51q27 -2 99 -2
q38 0 88 2z" />
    <glyph glyph-name="brokenbar" unicode="&#xa6;" horiz-adv-x="180" 
d="M60 701q22 12 60 12q-2 -63 -2 -190q0 -126 2 -189q-9 -5 -27 -8.5t-33 -3.5v379zM60 163q13 8 26.5 10.5t33.5 2.5q-2 -68 -2 -203q0 -136 2 -204q-8 -5 -26.5 -8.5t-33.5 -3.5v406z" />
    <glyph glyph-name="section" unicode="&#xa7;" horiz-adv-x="551" 
d="M455.5 141q-35.5 -45 -94.5 -68q42 -34 59.5 -70.5t17.5 -86.5q0 -69 -44.5 -113.5t-128.5 -44.5q-55 0 -89.5 11.5t-62.5 32.5q2 44 2 68q0 34 -3 66q26 8 59 8q8 -75 33.5 -103t64.5 -28q38 0 60 18.5t22 51.5q0 27 -9.5 45.5t-39 39t-90.5 51.5q-88 44 -124 93.5
t-36 122.5q0 59 32.5 102t86.5 66q-41 33 -57 70.5t-16 85.5q0 42 21.5 77.5t60 56.5t88.5 21q85 0 142 -37q-3 -25 -3 -60q0 -33 3 -62q-27 -9 -59 -9q-11 63 -32 88t-53 25q-36 0 -58.5 -21t-22.5 -51q0 -24 8.5 -41.5t36 -37.5t82.5 -45q68 -31 106.5 -60.5t55.5 -66.5
t17 -88q0 -62 -35.5 -107zM375.5 148.5q22.5 26.5 22.5 59.5q0 27 -11 48t-43 45t-95 54l-22 11q-43 -11 -63 -36.5t-20 -59.5q0 -27 10 -49t39 -45t83 -51q6 -3 24 -13q53 10 75.5 36.5z" />
    <glyph glyph-name="dieresis" unicode="&#xa8;" horiz-adv-x="300" 
d="M-4 542q-19 17 -19 42q0 28 16.5 47t49.5 19q34 0 51 -17.5t17 -46.5q0 -26 -19 -43.5t-47 -17.5q-30 0 -49 17zM205.5 543q-18.5 18 -18.5 48q0 27 19 43t49 16q29 0 48.5 -17t19.5 -42q0 -28 -16 -47t-49 -19q-34 0 -52.5 18z" />
    <glyph glyph-name="copyright" unicode="&#xa9;" horiz-adv-x="805" 
d="M575.5 527.5q78.5 -45.5 124 -124.5t45.5 -173t-45.5 -172.5t-124 -124.5t-172.5 -46q-95 0 -174 45.5t-124 124t-45 173.5t45.5 173.5t124 124t173.5 45.5q94 0 172.5 -45.5zM255 484q-67 -39 -106 -106t-39 -148q0 -82 38.5 -148.5t105.5 -105t149 -38.5q81 0 148 38.5
t106 105.5t39 148t-39 148t-106 106t-148 39t-148 -39zM487.5 443.5q31.5 -9.5 68.5 -31.5q-7 -42 -7 -111q-19 -9 -51 -9q-10 109 -100 109q-47 0 -68.5 -42.5t-21.5 -116.5q0 -75 29.5 -126t89.5 -51q65 0 111 47q16 -12 20 -33q-56 -74 -163 -74q-52 0 -96.5 26t-72 76.5
t-27.5 120.5q0 67 27 118t75.5 79t111.5 28q43 0 74.5 -9.5z" />
    <glyph glyph-name="ordfeminine" unicode="&#xaa;" horiz-adv-x="436" 
d="M252 396q0 14 5 36q-6 -24 -30 -46q-31 -26 -78 -26q-52 0 -78.5 22t-26.5 64q0 59 53 87.5t149 43.5q0 37 -3 51.5t-12 25.5q-15 21 -42 21q-25 0 -37.5 -24t-15.5 -61q-43 0 -62 7q1 7 1 22q0 35 -6 60q67 38 141 38q42 0 66.5 -8t41.5 -26q18 -19 24.5 -44.5
t6.5 -77.5v-73q0 -35 8 -46t37 -12q2 -28 -7 -45q-57 -2 -109 -26q-26 8 -26 37zM226.5 446q19.5 25 19.5 71v20q-48 -7 -73 -22t-25 -50q0 -23 9.5 -33.5t24.5 -10.5q25 0 44.5 25z" />
    <glyph glyph-name="guillemotleft" unicode="&#xab;" horiz-adv-x="508" 
d="M159 265q43 -80 95 -149q-10 -26 -34 -41q-80 84 -160 158q0 23 9 47q69 59 144 137q30 -3 48 -18q-73 -89 -102 -134zM342 262q44 -84 81 -142q-4 -11 -14.5 -21.5t-24.5 -17.5q-70 84 -134 149q0 30 8 49q53 53 120 132q29 -2 48 -19q-48 -68 -84 -130z" />
    <glyph glyph-name="logicalnot" unicode="&#xac;" 
d="M498 353v-232q-25 -15 -57 -15v188h-153q-153 0 -236 -2q0 14 3 32.5t7 28.5h436z" />
    <glyph glyph-name="uni00AD" unicode="&#xad;" horiz-adv-x="419" 
d="M346 223q-186 0 -286 -5q0 19 4.5 41.5t11.5 37.5h283q0 -44 -13 -74z" />
    <glyph glyph-name="registered" unicode="&#xae;" horiz-adv-x="516" 
d="M359 756.5q45 -26.5 71 -71.5t26 -100t-26 -100.5t-71 -71.5t-100 -26t-100.5 26t-72 71.5t-26.5 100.5t26.5 100t72 71.5t100.5 26.5t100 -26.5zM338.5 449.5q35.5 20.5 55.5 56.5t20 79t-20.5 79t-56 56.5t-78.5 20.5q-44 0 -80 -20.5t-56.5 -56.5t-20.5 -79t20.5 -79
t56.5 -56.5t80 -20.5t79.5 20.5zM347 489q-15 -6 -31 -6q-10 0 -15 1q-16 42 -41 71h-24v-70q-10 -3 -22 -3q-11 0 -21 3v197q32 9 69 9q39 0 57.5 -15t18.5 -45q0 -24 -10.5 -42t-33.5 -26q31 -28 53 -74zM294 622q0 21 -9.5 31t-25.5 10q-7 0 -23 -4v-75q14 -2 20 -2
q38 0 38 40z" />
    <glyph glyph-name="macron" unicode="&#xaf;" horiz-adv-x="300" 
d="M-32.5 605q2.5 16 6.5 26h361q0 -23 -9 -47q-159 0 -361 -5q0 10 2.5 26z" />
    <glyph glyph-name="degree" unicode="&#xb0;" horiz-adv-x="398" 
d="M299 480q-39 -37 -102 -37t-100 36t-37 93q0 55 38.5 91.5t98.5 36.5q67 0 104 -35.5t37 -91.5t-39 -93zM161.5 517.5q20.5 -28.5 49.5 -28.5q21 0 33.5 18.5t12.5 54.5q0 43 -17.5 68.5t-47.5 25.5q-22 0 -36.5 -19.5t-14.5 -45.5q0 -45 20.5 -73.5z" />
    <glyph glyph-name="plusminus" unicode="&#xb1;" 
d="M247 279q-90 0 -157 -1q0 14 2.5 32.5t6.5 25.5h148q0 75 -2 145q12 6 26 8t35 2v-155h154q0 -39 -9 -57h-49h-96v-138q-8 -4 -27 -7t-35 -3zM496 98q0 -20 -2 -32.5t-8 -23.5q-69 1 -201 1q-144 0 -231 -3q0 15 3 33t7 25h432z" />
    <glyph glyph-name="uni00B2" unicode="&#xb2;" horiz-adv-x="375" 
d="M39 446q34 34 98 90q40 36 56 63t16 61q0 25 -12.5 41.5t-32.5 16.5q-22 0 -32.5 -21t-16.5 -75q-37 0 -58 7q3 24 3 52q0 35 -4 56q31 16 61.5 23t69.5 7q51 0 86.5 -22t35.5 -70q0 -36 -14.5 -61t-46.5 -52l-87 -73h66q28 0 41 11.5t14 39.5q30 0 47 -5q0 -71 7 -107
q-8 -20 -35 -20q-26 0 -44 1l-87 1l-77 -1q-17 -1 -44 -1q-10 16 -10 38z" />
    <glyph glyph-name="uni00B3" unicode="&#xb3;" horiz-adv-x="380" 
d="M75 297.5q-26 9.5 -41 21.5q9 22 25 37q10 -7 30 -12.5t46 -5.5q40 0 71 27t31 73q0 36 -21 59.5t-58 23.5q-12 0 -22 -3q-17 13 -21 34q70 85 103 132h-56q-28 0 -40.5 -10.5t-26.5 -43.5q-12 0 -24 3t-19 7q9 53 9 119q23 -1 129 -1q97 0 115 1q5 -10 7 -18t2 -21
q-53 -58 -115 -144q57 3 96.5 -31.5t39.5 -97.5q0 -44 -23.5 -80t-68 -57.5t-105.5 -21.5q-37 0 -63 9.5z" />
    <glyph glyph-name="acute" unicode="&#xb4;" horiz-adv-x="300" 
d="M58 541q46 95 64 167q38 14 82 12q18 0 38 -6q-69 -82 -131 -183q-31 -2 -53 10z" />
    <glyph glyph-name="uni00B5" unicode="&#xb5;" horiz-adv-x="614" 
d="M519.5 107q4.5 -15 18.5 -23t43 -9q0 -34 -8 -52q-33 0 -73 -9.5t-64 -22.5q-28 14 -28 56q0 24 5 50q-12 -31 -36 -53q-52 -49 -126 -49q-31 0 -55 6v-41q0 -86 14 -134q-30 -16 -50 -30.5t-45 -39.5q-17 7 -25 28q5 31 7.5 57.5t2.5 82.5v386q0 29 -4 44t-18 23t-43 9
q0 31 9 47q41 1 82 11t66 23q26 -10 26 -50v-219q0 -74 17.5 -103.5t60.5 -29.5q26 0 49 18.5t37.5 56.5t14.5 93v82q0 28 -5.5 43.5t-21 23.5t-47.5 9q0 17 1.5 27.5t7.5 19.5q48 1 91 9.5t66 19.5q26 -10 26 -50v-264q0 -31 4.5 -46z" />
    <glyph glyph-name="paragraph" unicode="&#xb6;" horiz-adv-x="565" 
d="M544 679q0 -33 -7 -52q-29 -1 -43.5 -10.5t-19 -28t-4.5 -54.5v-771q-22 -12 -58 -12v875q-21 3 -56 5v-868q-22 -12 -58 -12v559q-11 -2 -32 -2q-115 0 -172.5 41.5t-57.5 140.5q0 86 65 137.5t201 51.5q34 0 86 -2l65 -1q62 0 91 3zM298 357v275q-78 -3 -110 -33.5
t-32 -103.5q0 -68 38 -103t93 -35h11z" />
    <glyph glyph-name="periodcentered" unicode="&#xb7;" horiz-adv-x="261" 
d="M78.5 210q-18.5 18 -18.5 48t21 49.5t53 19.5q30 0 48.5 -20t18.5 -44q0 -32 -20 -51.5t-51 -19.5q-33 0 -51.5 18z" />
    <glyph glyph-name="cedilla" unicode="&#xb8;" horiz-adv-x="300" 
d="M77 -205q32 0 55.5 14t23.5 38q0 22 -18 35.5t-45 13.5q-18 16 -18 41l54 79h56l-47 -64q41 -7 64.5 -31.5t23.5 -60.5q0 -47 -43 -74.5t-99 -27.5q-7 14 -7 37z" />
    <glyph glyph-name="uni00B9" unicode="&#xb9;" horiz-adv-x="321" 
d="M58 457q30 1 41.5 15t11.5 48v125q0 33 -12.5 48.5t-41.5 16.5q-4 21 -4 51q33 -3 109 -3q67 0 106 3q0 -31 -5 -51q-29 -1 -41.5 -16.5t-12.5 -48.5v-125q0 -34 12 -48t42 -15q5 -27 5 -50q-46 3 -106 3q-61 0 -109 -3q0 31 5 50z" />
    <glyph glyph-name="ordmasculine" unicode="&#xba;" horiz-adv-x="428" 
d="M345 668.5q45 -48.5 45 -128.5q0 -84 -48.5 -133.5t-130.5 -49.5t-128 47.5t-46 128.5q0 56 23 98t63.5 64t91.5 22q85 0 130 -48.5zM268.5 436q16.5 33 16.5 87q0 70 -23 109.5t-56 39.5q-30 0 -46 -32t-16 -85q0 -69 20.5 -110.5t57.5 -41.5q30 0 46.5 33z" />
    <glyph glyph-name="guillemotright" unicode="&#xbb;" horiz-adv-x="515" 
d="M356 245q-39 64 -103 155q9 7 22 11.5t26 4.5q68 -64 145 -128q9 -18 9 -46q-75 -74 -157 -164q-22 12 -34 37q50 63 92 130zM169 246q-30 58 -86 147q8 8 22.5 13t29.5 6q55 -63 121 -125q8 -17 8 -47q-72 -82 -131 -157q-25 13 -40 38q42 64 76 125z" />
    <glyph glyph-name="onequarter" unicode="&#xbc;" horiz-adv-x="835" 
d="M242 717q5 -9 5 -30v-282q0 -35 6 -50.5t20 -21t48 -8.5q6 -19 6 -46q-82 2 -140 2t-136 -2q0 30 5 46q36 3 52.5 8.5t24 21t7.5 50.5v176q0 30 -6 43t-26 17.5t-67 4.5q0 29 5 49q54 3 95.5 11.5t80.5 23.5q15 -4 20 -13zM188 2.5q-15 7.5 -21 15.5l513 697
q13 -2 28 -10t24 -17l-512 -696q-17 3 -32 10.5zM727 117v-8q0 -27 5 -39.5t15 -16t31 -4.5q5 -22 5 -52q-40 3 -112 3q-76 0 -112 -3q0 40 5 52q38 1 52 12.5t14 47.5v7q-88 -1 -164 -7q-21 26 -21 61q68 83 118 148t96 132l17 1q29 0 51 -8v-248h42q14 0 21.5 -3t13.5 -10
q-13 -24 -18 -65h-59zM630 195v139l-101 -139h101z" />
    <glyph glyph-name="onehalf" unicode="&#xbd;" horiz-adv-x="960" 
d="M242 717q5 -9 5 -30v-282q0 -35 6 -50.5t20 -21t48 -8.5q6 -19 6 -46q-82 2 -140 2t-136 -2q0 30 5 46q36 3 52.5 8.5t24 21t7.5 50.5v176q0 30 -6 43t-26 17.5t-67 4.5q0 29 5 49q54 3 95.5 11.5t80.5 23.5q15 -4 20 -13zM188 2.5q-15 7.5 -21 15.5l513 697
q13 -2 28 -10t24 -17l-512 -696q-17 3 -32 10.5zM922 103q0 -45 8 -79q-12 -26 -45 -26q-7 0 -44 1t-81 1q-57 0 -94 -1l-62 -1q-16 20 -16 56q63 75 138 155q31 32 45 58.5t14 57.5q0 32 -14.5 49t-41.5 17q-29 0 -43 -22.5t-20 -82.5q-38 0 -68 10q5 33 5 66q0 29 -3 57
q63 30 151 30q77 0 115.5 -25t38.5 -79q0 -39 -22 -72.5t-72 -75.5q-31 -27 -54.5 -49t-44.5 -45h76q29 0 43.5 4.5t21 16.5t10.5 39q34 2 61 -8q-2 -38 -2 -52z" />
    <glyph glyph-name="threequarters" unicode="&#xbe;" horiz-adv-x="833" 
d="M310.5 508q36.5 -29 36.5 -85q0 -68 -53.5 -108.5t-144.5 -40.5q-45 0 -75 9.5t-45 23.5q2 26 17 41q33 -22 83 -22q47 0 76 21t29 57q0 31 -22 49t-56 18q-13 0 -25 -4q-7 8 -12 20.5t-5 23.5l19 21q62 68 86 99h-64q-30 0 -43.5 -9.5t-25.5 -41.5q-33 0 -49 12
q9 46 9 135q42 -3 138 -3q64 0 136 3q14 -22 13 -46q-74 -87 -120 -142q61 -2 97.5 -31zM186 2.5q-15 7.5 -21 15.5l513 697q13 -2 28 -10t24 -17l-512 -696q-17 3 -32 10.5zM725 117v-8q0 -27 5 -39.5t15 -16t31 -4.5q5 -22 5 -52q-40 3 -112 3q-76 0 -112 -3q0 40 5 52
q38 1 52 12.5t14 47.5v7q-88 -1 -164 -7q-21 26 -21 61q68 83 118 148t96 132l17 1q29 0 51 -8v-248h42q14 0 21.5 -3t13.5 -10q-13 -24 -18 -65h-59zM628 195v139l-101 -139h101z" />
    <glyph glyph-name="questiondown" unicode="&#xbf;" horiz-adv-x="537" 
d="M312 446.5q21 -20.5 21 -54.5q0 -35 -23.5 -57t-60.5 -22q-34 0 -55.5 22.5t-21.5 50.5q0 37 22.5 59t58.5 22q38 0 59 -20.5zM128 -224q-45 33 -45 93q0 45 19 77.5t56 74.5q37 41 56 74t19 78q0 15 -3.5 36t-8.5 37q21 11 51 11q20 -14 35 -49t15 -75q0 -47 -17.5 -78
t-50.5 -67q-27 -30 -40.5 -53t-13.5 -53q0 -40 21 -64t50 -24q34 0 53 30t27 101q43 0 69 -14q-3 -38 -3 -67q0 -27 3 -57q-74 -44 -168 -44q-79 0 -124 33z" />
    <glyph glyph-name="Agrave" unicode="&#xc0;" horiz-adv-x="708" 
d="M687 -3q-39 3 -126 3q-93 0 -131 -3q0 34 8 53q25 3 36.5 10t11.5 21q0 15 -14 46l-33 78q-155 0 -254 -5l-20 -52q-13 -33 -13 -55q0 -20 12 -30.5t37 -12.5q8 -24 8 -53q-34 3 -102 3q-29 0 -86 -3q0 31 8 52q26 5 40.5 25.5t39.5 80.5l208 522q21 5 49 5l234 -530
q19 -42 31 -62.5t22.5 -29t26.5 -10.5q7 -24 7 -53zM417 256l-65 152q-27 60 -46 119q-18 -58 -41 -119l-58 -152h210zM218 859q19 10 47.5 14t57.5 2q27 -69 63 -134q-23 -8 -57 -8q-59 74 -111 126z" />
    <glyph glyph-name="Aacute" unicode="&#xc1;" horiz-adv-x="708" 
d="M687 -3q-39 3 -126 3q-93 0 -131 -3q0 34 8 53q25 3 36.5 10t11.5 21q0 15 -14 46l-33 78q-155 0 -254 -5l-20 -52q-13 -33 -13 -55q0 -20 12 -30.5t37 -12.5q8 -24 8 -53q-34 3 -102 3q-29 0 -86 -3q0 31 8 52q26 5 40.5 25.5t39.5 80.5l208 522q21 5 49 5l234 -530
q19 -42 31 -62.5t22.5 -29t26.5 -10.5q7 -24 7 -53zM417 256l-65 152q-27 60 -46 119q-18 -58 -41 -119l-58 -152h210zM298 741q33 63 57 130q32 8 61 8q27 0 53 -7q-52 -60 -114 -139q-34 0 -57 8z" />
    <glyph glyph-name="Acircumflex" unicode="&#xc2;" horiz-adv-x="708" 
d="M687 -3q-39 3 -126 3q-93 0 -131 -3q0 34 8 53q25 3 36.5 10t11.5 21q0 15 -14 46l-33 78q-155 0 -254 -5l-20 -52q-13 -33 -13 -55q0 -20 12 -30.5t37 -12.5q8 -24 8 -53q-34 3 -102 3q-29 0 -86 -3q0 31 8 52q26 5 40.5 25.5t39.5 80.5l208 522q21 5 49 5l234 -530
q19 -42 31 -62.5t22.5 -29t26.5 -10.5q7 -24 7 -53zM417 256l-65 152q-27 60 -46 119q-18 -58 -41 -119l-58 -152h210zM188.5 743q-7.5 12 -10.5 24q87 56 143 110q20 5 50 5q56 -60 134 -120q-17 -24 -50 -33q-76 46 -121 66q-85 -41 -126 -67q-12 3 -19.5 15z" />
    <glyph glyph-name="Atilde" unicode="&#xc3;" horiz-adv-x="708" 
d="M687 -3q-39 3 -126 3q-93 0 -131 -3q0 34 8 53q25 3 36.5 10t11.5 21q0 15 -14 46l-33 78q-155 0 -254 -5l-20 -52q-13 -33 -13 -55q0 -20 12 -30.5t37 -12.5q8 -24 8 -53q-34 3 -102 3q-29 0 -86 -3q0 31 8 52q26 5 40.5 25.5t39.5 80.5l208 522q21 5 49 5l234 -530
q19 -42 31 -62.5t22.5 -29t26.5 -10.5q7 -24 7 -53zM417 256l-65 152q-27 60 -46 119q-18 -58 -41 -119l-58 -152h210zM361 749.5q-16 5.5 -38 15.5q-23 10 -35.5 14t-27.5 4q-39 0 -73 -36q-19 17 -20 44q27 36 58 51.5t62 15.5q20 0 36 -5t41 -15q19 -9 32 -13t26 -4
q31 0 58 30q25 -4 37 -20q-47 -87 -121 -87q-19 0 -35 5.5z" />
    <glyph glyph-name="Adieresis" unicode="&#xc4;" horiz-adv-x="708" 
d="M687 -3q-39 3 -126 3q-93 0 -131 -3q0 34 8 53q25 3 36.5 10t11.5 21q0 15 -14 46l-33 78q-155 0 -254 -5l-20 -52q-13 -33 -13 -55q0 -20 12 -30.5t37 -12.5q8 -24 8 -53q-34 3 -102 3q-29 0 -86 -3q0 31 8 52q26 5 40.5 25.5t39.5 80.5l208 522q21 5 49 5l234 -530
q19 -42 31 -62.5t22.5 -29t26.5 -10.5q7 -24 7 -53zM417 256l-65 152q-27 60 -46 119q-18 -58 -41 -119l-58 -152h210zM188 746q-19 17 -19 42q0 28 16.5 47t49.5 19q34 0 51 -17.5t17 -46.5q0 -26 -19 -43.5t-47 -17.5q-30 0 -49 17zM397.5 747q-18.5 18 -18.5 48
q0 27 19 43t49 16q29 0 48.5 -17t19.5 -42q0 -28 -16 -47t-49 -19q-34 0 -52.5 18z" />
    <glyph glyph-name="Aring" unicode="&#xc5;" horiz-adv-x="708" 
d="M687 -3q-39 3 -126 3q-93 0 -131 -3q0 34 8 53q25 3 36.5 10t11.5 21q0 15 -14 46l-33 78q-155 0 -254 -5l-20 -52q-13 -33 -13 -55q0 -20 12 -30.5t37 -12.5q8 -24 8 -53q-34 3 -102 3q-29 0 -86 -3q0 31 8 52q26 5 40.5 25.5t39.5 80.5l208 522q21 5 49 5l234 -530
q19 -42 31 -62.5t22.5 -29t26.5 -10.5q7 -24 7 -53zM417 256l-65 152q-27 60 -46 119q-18 -58 -41 -119l-58 -152h210zM266 741q-29 21 -29 57q0 38 31 61t78 23q43 0 72 -19.5t29 -57.5q0 -37 -31 -61t-79 -24q-42 0 -71 21zM373 766.5q11 11.5 11 30.5q0 20 -12 36.5
t-34 16.5q-17 0 -27 -12.5t-10 -34.5t12 -35t33 -13q16 0 27 11.5z" />
    <glyph glyph-name="AE" unicode="&#xc6;" horiz-adv-x="936" 
d="M871 -2q-128 2 -260 2q-122 0 -222 -2q0 36 7 52q28 3 41 11.5t18 28.5t5 62v142q-123 -2 -183 -7q-28 -48 -72 -128q-25 -47 -25 -71q0 -18 11.5 -27t33.5 -13q8 -19 8 -51q-46 3 -108 3q-74 0 -104 -3q0 35 8 52q29 4 50 23.5t55 79.5l228 394q16 28 16 45q0 29 -56 35
q-8 19 -8 52q104 -2 173 -2h62q173 0 297 2q2 -40 8 -86t13 -77q-8 -6 -25.5 -9.5t-35.5 -3.5q-6 57 -40 90.5t-116 33.5h-66v-282h40q53 0 72.5 18t20.5 61q30 9 59 9q-2 -48 -2 -114q0 -67 2 -115q-41 0 -57 6q-3 31 -10.5 49t-28.5 27.5t-62 9.5h-34v-142q0 -43 8 -64.5
t23 -28.5t41 -7h24q53 0 82.5 13t46 39.5t34.5 76.5q43 -11 59 -27q-20 -60 -31 -157zM460 344v196q0 42 4 78q-12 -27 -38 -72l-116 -202h150z" />
    <glyph glyph-name="Ccedilla" unicode="&#xc7;" horiz-adv-x="648" 
d="M416.5 -79.5q23.5 -24.5 23.5 -60.5q0 -47 -43 -74.5t-99 -27.5q-7 14 -7 37q32 0 55.5 14t23.5 38q0 22 -18 35.5t-45 13.5q-18 16 -18 41l38 55q-86 8 -152.5 54t-103 123t-36.5 173q0 110 47 187.5t124 116.5t166 39q59 0 112.5 -13t108.5 -39q-11 -57 -11 -155
q-21 -10 -66 -10q-2 93 -36.5 129.5t-100.5 36.5q-107 0 -159 -76t-52 -189q0 -88 28 -158t82 -110t129 -40q44 0 90 14t88 40q7 -6 13 -17t8 -20q-51 -41 -105 -62.5t-120 -24.5l-29 -39q41 -7 64.5 -31.5z" />
    <glyph glyph-name="Egrave" unicode="&#xc8;" horiz-adv-x="614" 
d="M580 155q-22 -68 -31 -157q-90 2 -227 2q-199 0 -273 -3q0 37 6 53q28 2 42 10t20 29t6 63v381q0 37 -6 56t-20.5 27t-42.5 10q-5 18 -5 53q68 -3 196 -3q161 0 278 3q10 -113 21 -164q-22 -13 -60 -13q-6 57 -40 90.5t-117 33.5h-81v-261h46q58 0 80 16.5t23 62.5
q24 8 59 8q-3 -49 -3 -111q0 -67 3 -117q-37 0 -57 6q-4 49 -26 66t-79 17h-46v-160q0 -41 7.5 -62t26 -29.5t54.5 -8.5h9q59 0 92.5 14t51 40t33.5 75q39 -7 60 -27zM171 859q19 10 47.5 14t57.5 2q27 -69 63 -134q-23 -8 -57 -8q-59 74 -111 126z" />
    <glyph glyph-name="Eacute" unicode="&#xc9;" horiz-adv-x="614" 
d="M580 155q-22 -68 -31 -157q-90 2 -227 2q-199 0 -273 -3q0 37 6 53q28 2 42 10t20 29t6 63v381q0 37 -6 56t-20.5 27t-42.5 10q-5 18 -5 53q68 -3 196 -3q161 0 278 3q10 -113 21 -164q-22 -13 -60 -13q-6 57 -40 90.5t-117 33.5h-81v-261h46q58 0 80 16.5t23 62.5
q24 8 59 8q-3 -49 -3 -111q0 -67 3 -117q-37 0 -57 6q-4 49 -26 66t-79 17h-46v-160q0 -41 7.5 -62t26 -29.5t54.5 -8.5h9q59 0 92.5 14t51 40t33.5 75q39 -7 60 -27zM251 741q33 63 57 130q32 8 61 8q27 0 53 -7q-52 -60 -114 -139q-34 0 -57 8z" />
    <glyph glyph-name="Ecircumflex" unicode="&#xca;" horiz-adv-x="614" 
d="M580 155q-22 -68 -31 -157q-90 2 -227 2q-199 0 -273 -3q0 37 6 53q28 2 42 10t20 29t6 63v381q0 37 -6 56t-20.5 27t-42.5 10q-5 18 -5 53q68 -3 196 -3q161 0 278 3q10 -113 21 -164q-22 -13 -60 -13q-6 57 -40 90.5t-117 33.5h-81v-261h46q58 0 80 16.5t23 62.5
q24 8 59 8q-3 -49 -3 -111q0 -67 3 -117q-37 0 -57 6q-4 49 -26 66t-79 17h-46v-160q0 -41 7.5 -62t26 -29.5t54.5 -8.5h9q59 0 92.5 14t51 40t33.5 75q39 -7 60 -27zM141.5 743q-7.5 12 -10.5 24q87 56 143 110q20 5 50 5q56 -60 134 -120q-17 -24 -50 -33q-76 46 -121 66
q-85 -41 -126 -67q-12 3 -19.5 15z" />
    <glyph glyph-name="Edieresis" unicode="&#xcb;" horiz-adv-x="614" 
d="M580 155q-22 -68 -31 -157q-90 2 -227 2q-199 0 -273 -3q0 37 6 53q28 2 42 10t20 29t6 63v381q0 37 -6 56t-20.5 27t-42.5 10q-5 18 -5 53q68 -3 196 -3q161 0 278 3q10 -113 21 -164q-22 -13 -60 -13q-6 57 -40 90.5t-117 33.5h-81v-261h46q58 0 80 16.5t23 62.5
q24 8 59 8q-3 -49 -3 -111q0 -67 3 -117q-37 0 -57 6q-4 49 -26 66t-79 17h-46v-160q0 -41 7.5 -62t26 -29.5t54.5 -8.5h9q59 0 92.5 14t51 40t33.5 75q39 -7 60 -27zM141 746q-19 17 -19 42q0 28 16.5 47t49.5 19q34 0 51 -17.5t17 -46.5q0 -26 -19 -43.5t-47 -17.5
q-30 0 -49 17zM350.5 747q-18.5 18 -18.5 48q0 27 19 43t49 16q29 0 48.5 -17t19.5 -42q0 -28 -16 -47t-49 -19q-34 0 -52.5 18z" />
    <glyph glyph-name="Igrave" unicode="&#xcc;" horiz-adv-x="369" 
d="M117 589q-6 19 -20 27t-42 10q-6 21 -6 53q54 -3 137 -3q74 0 134 3q0 -15 -1 -29t-5 -24q-28 -2 -42 -10t-20 -27t-6 -56v-389q0 -38 6 -57t20 -27t42 -10q6 -16 6 -53q-55 3 -131 3q-84 0 -140 -3q0 34 6 53q28 2 42 10t20 27t6 57v389q0 37 -6 56zM61 859
q19 10 47.5 14t57.5 2q27 -69 63 -134q-23 -8 -57 -8q-59 74 -111 126z" />
    <glyph glyph-name="Iacute" unicode="&#xcd;" horiz-adv-x="369" 
d="M117 589q-6 19 -20 27t-42 10q-6 21 -6 53q54 -3 137 -3q74 0 134 3q0 -15 -1 -29t-5 -24q-28 -2 -42 -10t-20 -27t-6 -56v-389q0 -38 6 -57t20 -27t42 -10q6 -16 6 -53q-55 3 -131 3q-84 0 -140 -3q0 34 6 53q28 2 42 10t20 27t6 57v389q0 37 -6 56zM141 741
q33 63 57 130q32 8 61 8q27 0 53 -7q-52 -60 -114 -139q-34 0 -57 8z" />
    <glyph glyph-name="Icircumflex" unicode="&#xce;" horiz-adv-x="369" 
d="M42 748q42 37 121 120q30 8 49 8q46 -58 115 -137q-9 -10 -24 -17.5t-31 -10.5q-48 42 -100 74q-53 -37 -92 -76q-29 12 -38 39zM117 589q-6 19 -20 27t-42 10q-6 21 -6 53q54 -3 137 -3q74 0 134 3q0 -15 -1 -29t-5 -24q-28 -2 -42 -10t-20 -27t-6 -56v-389q0 -38 6 -57
t20 -27t42 -10q6 -16 6 -53q-55 3 -131 3q-84 0 -140 -3q0 34 6 53q28 2 42 10t20 27t6 57v389q0 37 -6 56z" />
    <glyph glyph-name="Idieresis" unicode="&#xcf;" horiz-adv-x="369" 
d="M50 745.5q-19 15.5 -19 39.5q0 27 16.5 45t48.5 18q34 0 51 -17t17 -44q0 -25 -18.5 -41t-46.5 -16q-30 0 -49 15.5zM221 747q-18 17 -18 45q0 26 18.5 41t48.5 15q29 0 48 -16t19 -40q0 -27 -15.5 -44.5t-48.5 -17.5q-34 0 -52 17zM117 589q-6 19 -20 27t-42 10
q-6 21 -6 53q54 -3 137 -3q74 0 134 3q0 -15 -1 -29t-5 -24q-28 -2 -42 -10t-20 -27t-6 -56v-389q0 -38 6 -57t20 -27t42 -10q6 -16 6 -53q-55 3 -131 3q-84 0 -140 -3q0 34 6 53q28 2 42 10t20 27t6 57v389q0 37 -6 56z" />
    <glyph glyph-name="Eth" unicode="&#xd0;" horiz-adv-x="733" 
d="M593.5 609.5q104.5 -68.5 104.5 -254.5q0 -148 -65.5 -226.5t-148.5 -103.5t-162 -25q-199 0 -273 -3q0 37 6 53q28 2 42.5 10t20.5 29.5t6 62.5v157l-71 -1q0 16 3 34.5t7 27.5h61v163q0 37 -6 56t-20.5 27t-42.5 10q-5 18 -5 53q53 -3 159 -3q36 0 54 1l60 1
q166 0 270.5 -68.5zM503.5 116.5q63.5 63.5 63.5 222.5q0 151 -72.5 221t-182.5 70q-38 0 -65 -10v-250h131q0 -39 -9 -61q-48 1 -122 1v-157q0 -41 7 -62t25.5 -29.5t54.5 -8.5q106 0 169.5 63.5z" />
    <glyph glyph-name="Ntilde" unicode="&#xd1;" horiz-adv-x="733" 
d="M695 679q0 -35 -5 -53q-24 -1 -36.5 -13.5t-18 -42.5t-5.5 -86v-484q-22 -7 -57 -7l-393 519v-316q0 -58 6 -88.5t21.5 -43.5t44.5 -14q6 -18 6 -53q-45 3 -105 3q-72 0 -108 -3q0 34 5 53q29 1 44.5 14t22 43.5t6.5 88.5v391l-7 9q-13 16 -25.5 22t-40.5 8q-5 21 -5 53
q32 -3 90 -3q49 0 80 3l357 -478v283q0 57 -6 86.5t-21.5 42t-45.5 13.5q-6 28 -6 53q44 -3 104 -3q59 0 98 3zM391 749.5q-16 5.5 -38 15.5q-23 10 -35.5 14t-27.5 4q-39 0 -73 -36q-19 17 -20 44q27 36 58 51.5t62 15.5q20 0 36 -5t41 -15q19 -9 32 -13t26 -4q31 0 58 30
q25 -4 37 -20q-47 -87 -121 -87q-19 0 -35 5.5z" />
    <glyph glyph-name="Ograve" unicode="&#xd2;" horiz-adv-x="739" 
d="M193.5 36q-75.5 45 -117 124.5t-41.5 179.5q0 102 43.5 180t119.5 121.5t171 43.5q97 0 173.5 -43t119 -120t42.5 -178q0 -100 -42.5 -180.5t-118.5 -126.5t-174 -46q-100 0 -175.5 45zM486 83q42 35 64.5 96.5t22.5 139.5q0 86 -28.5 157t-79.5 112.5t-115 41.5
q-53 0 -95 -32.5t-65.5 -92.5t-23.5 -139q0 -85 26 -157.5t76 -116.5t119 -44q57 0 99 35zM246 859q19 10 47.5 14t57.5 2q27 -69 63 -134q-23 -8 -57 -8q-59 74 -111 126z" />
    <glyph glyph-name="Oacute" unicode="&#xd3;" horiz-adv-x="739" 
d="M193.5 36q-75.5 45 -117 124.5t-41.5 179.5q0 102 43.5 180t119.5 121.5t171 43.5q97 0 173.5 -43t119 -120t42.5 -178q0 -100 -42.5 -180.5t-118.5 -126.5t-174 -46q-100 0 -175.5 45zM486 83q42 35 64.5 96.5t22.5 139.5q0 86 -28.5 157t-79.5 112.5t-115 41.5
q-53 0 -95 -32.5t-65.5 -92.5t-23.5 -139q0 -85 26 -157.5t76 -116.5t119 -44q57 0 99 35zM326 741q33 63 57 130q32 8 61 8q27 0 53 -7q-52 -60 -114 -139q-34 0 -57 8z" />
    <glyph glyph-name="Ocircumflex" unicode="&#xd4;" horiz-adv-x="739" 
d="M193.5 36q-75.5 45 -117 124.5t-41.5 179.5q0 102 43.5 180t119.5 121.5t171 43.5q97 0 173.5 -43t119 -120t42.5 -178q0 -100 -42.5 -180.5t-118.5 -126.5t-174 -46q-100 0 -175.5 45zM486 83q42 35 64.5 96.5t22.5 139.5q0 86 -28.5 157t-79.5 112.5t-115 41.5
q-53 0 -95 -32.5t-65.5 -92.5t-23.5 -139q0 -85 26 -157.5t76 -116.5t119 -44q57 0 99 35zM216.5 743q-7.5 12 -10.5 24q87 56 143 110q20 5 50 5q56 -60 134 -120q-17 -24 -50 -33q-76 46 -121 66q-85 -41 -126 -67q-12 3 -19.5 15z" />
    <glyph glyph-name="Otilde" unicode="&#xd5;" horiz-adv-x="739" 
d="M193.5 36q-75.5 45 -117 124.5t-41.5 179.5q0 102 43.5 180t119.5 121.5t171 43.5q97 0 173.5 -43t119 -120t42.5 -178q0 -100 -42.5 -180.5t-118.5 -126.5t-174 -46q-100 0 -175.5 45zM486 83q42 35 64.5 96.5t22.5 139.5q0 86 -28.5 157t-79.5 112.5t-115 41.5
q-53 0 -95 -32.5t-65.5 -92.5t-23.5 -139q0 -85 26 -157.5t76 -116.5t119 -44q57 0 99 35zM389 749.5q-16 5.5 -38 15.5q-23 10 -35.5 14t-27.5 4q-39 0 -73 -36q-19 17 -20 44q27 36 58 51.5t62 15.5q20 0 36 -5t41 -15q19 -9 32 -13t26 -4q31 0 58 30q25 -4 37 -20
q-47 -87 -121 -87q-19 0 -35 5.5z" />
    <glyph glyph-name="Odieresis" unicode="&#xd6;" horiz-adv-x="739" 
d="M193.5 36q-75.5 45 -117 124.5t-41.5 179.5q0 102 43.5 180t119.5 121.5t171 43.5q97 0 173.5 -43t119 -120t42.5 -178q0 -100 -42.5 -180.5t-118.5 -126.5t-174 -46q-100 0 -175.5 45zM486 83q42 35 64.5 96.5t22.5 139.5q0 86 -28.5 157t-79.5 112.5t-115 41.5
q-53 0 -95 -32.5t-65.5 -92.5t-23.5 -139q0 -85 26 -157.5t76 -116.5t119 -44q57 0 99 35zM216 746q-19 17 -19 42q0 28 16.5 47t49.5 19q34 0 51 -17.5t17 -46.5q0 -26 -19 -43.5t-47 -17.5q-30 0 -49 17zM425.5 747q-18.5 18 -18.5 48q0 27 19 43t49 16q29 0 48.5 -17
t19.5 -42q0 -28 -16 -47t-49 -19q-34 0 -52.5 18z" />
    <glyph glyph-name="multiply" unicode="&#xd7;" 
d="M510 49q-10 -13 -27 -20.5t-34 -7.5l-21 24q-117 129 -155 170l-43 -48q-31 -35 -63.5 -72t-64.5 -74q-20 0 -37.5 5.5t-25.5 16.5l194 215q-94 102 -193 205q11 12 26.5 19.5t32.5 7.5l174 -187l175 194q46 -8 60 -26q-78 -81 -195 -211z" />
    <glyph glyph-name="Oslash" unicode="&#xd8;" horiz-adv-x="739" 
d="M678.5 484q25.5 -64 25.5 -140q0 -100 -42.5 -180.5t-118.5 -126.5t-174 -46q-110 0 -194 57l-60 -76q-19 0 -35.5 6t-24.5 16l75 92q-46 48 -70.5 112.5t-24.5 141.5q0 102 43.5 180t119.5 121.5t171 43.5q107 0 189 -52l52 68q44 0 66 -18l-69 -89q46 -46 71.5 -110z
M255 597.5q-42 -32.5 -65.5 -92.5t-23.5 -139q0 -108 39 -189l292 380q-62 73 -147 73q-53 0 -95 -32.5zM486 83q42 35 64.5 96.5t22.5 139.5q0 104 -41 184l-293 -382q58 -73 148 -73q57 0 99 35z" />
    <glyph glyph-name="Ugrave" unicode="&#xd9;" horiz-adv-x="681" 
d="M565 130q-12 -50 -46 -83q-56 -56 -166 -56q-94 0 -148.5 26.5t-78 79.5t-23.5 136v299q0 39 -5 57.5t-17 25.5t-39 11q-6 19 -6 53q40 -3 121 -3q95 0 142 3q0 -32 -5 -53q-31 -3 -44.5 -10t-18.5 -25.5t-5 -58.5v-284q0 -94 35.5 -145t118.5 -51q27 0 54.5 9.5
t45.5 29.5q22 23 30.5 61t8.5 116v229q0 50 -5.5 76t-19.5 38t-43 15q-5 28 -5 53q36 -3 99 -3q59 0 98 3q0 -27 -6 -53q-24 -3 -37 -14.5t-18 -37t-5 -74.5v-229q0 -91 -12 -141zM249 859q19 10 47.5 14t57.5 2q27 -69 63 -134q-23 -8 -57 -8q-59 74 -111 126z" />
    <glyph glyph-name="Uacute" unicode="&#xda;" horiz-adv-x="681" 
d="M565 130q-12 -50 -46 -83q-56 -56 -166 -56q-94 0 -148.5 26.5t-78 79.5t-23.5 136v299q0 39 -5 57.5t-17 25.5t-39 11q-6 19 -6 53q40 -3 121 -3q95 0 142 3q0 -32 -5 -53q-31 -3 -44.5 -10t-18.5 -25.5t-5 -58.5v-284q0 -94 35.5 -145t118.5 -51q27 0 54.5 9.5
t45.5 29.5q22 23 30.5 61t8.5 116v229q0 50 -5.5 76t-19.5 38t-43 15q-5 28 -5 53q36 -3 99 -3q59 0 98 3q0 -27 -6 -53q-24 -3 -37 -14.5t-18 -37t-5 -74.5v-229q0 -91 -12 -141zM329 741q33 63 57 130q32 8 61 8q27 0 53 -7q-52 -60 -114 -139q-34 0 -57 8z" />
    <glyph glyph-name="Ucircumflex" unicode="&#xdb;" horiz-adv-x="681" 
d="M565 130q-12 -50 -46 -83q-56 -56 -166 -56q-94 0 -148.5 26.5t-78 79.5t-23.5 136v299q0 39 -5 57.5t-17 25.5t-39 11q-6 19 -6 53q40 -3 121 -3q95 0 142 3q0 -32 -5 -53q-31 -3 -44.5 -10t-18.5 -25.5t-5 -58.5v-284q0 -94 35.5 -145t118.5 -51q27 0 54.5 9.5
t45.5 29.5q22 23 30.5 61t8.5 116v229q0 50 -5.5 76t-19.5 38t-43 15q-5 28 -5 53q36 -3 99 -3q59 0 98 3q0 -27 -6 -53q-24 -3 -37 -14.5t-18 -37t-5 -74.5v-229q0 -91 -12 -141zM219.5 743q-7.5 12 -10.5 24q87 56 143 110q20 5 50 5q56 -60 134 -120q-17 -24 -50 -33
q-76 46 -121 66q-85 -41 -126 -67q-12 3 -19.5 15z" />
    <glyph glyph-name="Udieresis" unicode="&#xdc;" horiz-adv-x="681" 
d="M565 130q-12 -50 -46 -83q-56 -56 -166 -56q-94 0 -148.5 26.5t-78 79.5t-23.5 136v299q0 39 -5 57.5t-17 25.5t-39 11q-6 19 -6 53q40 -3 121 -3q95 0 142 3q0 -32 -5 -53q-31 -3 -44.5 -10t-18.5 -25.5t-5 -58.5v-284q0 -94 35.5 -145t118.5 -51q27 0 54.5 9.5
t45.5 29.5q22 23 30.5 61t8.5 116v229q0 50 -5.5 76t-19.5 38t-43 15q-5 28 -5 53q36 -3 99 -3q59 0 98 3q0 -27 -6 -53q-24 -3 -37 -14.5t-18 -37t-5 -74.5v-229q0 -91 -12 -141zM219 746q-19 17 -19 42q0 28 16.5 47t49.5 19q34 0 51 -17.5t17 -46.5q0 -26 -19 -43.5
t-47 -17.5q-30 0 -49 17zM428.5 747q-18.5 18 -18.5 48q0 27 19 43t49 16q29 0 48.5 -17t19.5 -42q0 -28 -16 -47t-49 -19q-34 0 -52.5 18z" />
    <glyph glyph-name="Yacute" unicode="&#xdd;" horiz-adv-x="631" 
d="M610 678q0 -23 -5 -50q-26 -6 -47.5 -29t-44.5 -72l-132 -272v-82q0 -54 6 -77.5t22 -32.5t55 -13q7 -20 7 -53q-72 3 -151 3q-83 0 -157 -2q0 31 7 52q42 3 59 11t23 30t6 73v90l-159 314q-16 32 -31.5 45t-40.5 14q-6 20 -6 51q66 -2 122 -2q109 0 143 2q0 -29 -5 -50
q-23 -2 -33 -9.5t-10 -21.5q0 -17 17 -51q50 -100 104 -226q49 115 99 217q18 36 18 55q0 15 -11 23.5t-34 11.5q-8 26 -8 51q27 -2 99 -2q38 0 88 2zM309 741q33 63 57 130q32 8 61 8q27 0 53 -7q-52 -60 -114 -139q-34 0 -57 8z" />
    <glyph glyph-name="Thorn" unicode="&#xde;" horiz-adv-x="614" 
d="M525.5 489q53.5 -52 53.5 -134q0 -53 -27 -100t-79 -76t-124 -29q-39 0 -69 10q-2 12 -2 17q0 14 5 27q19 -4 46 -4q56 0 92.5 31.5t36.5 105.5q0 71 -38.5 113t-114.5 42q-29 0 -59 -7v-324q0 -43 9.5 -66.5t29.5 -33t56 -11.5q6 -17 6 -53q-51 3 -148 3q-90 0 -150 -3
q0 34 6 53q28 2 42 10t20 27t6 57v389q0 37 -6 56t-20 27t-42 10q-6 21 -6 53q54 -3 137 -3q74 0 134 3q0 -15 -1 -29t-5 -24q-27 -2 -41 -9.5t-20 -25t-7 -51.5q35 1 118 1q108 0 161.5 -52z" />
    <glyph glyph-name="germandbls" unicode="&#xdf;" horiz-adv-x="644" 
d="M77.5 390.5q-24.5 3.5 -43.5 3.5q0 32 13 54h66v37q0 75 32.5 127.5t85 78t113.5 25.5q85 0 130 -38.5t45 -95.5q0 -44 -18.5 -70t-52.5 -54q-23 -18 -34 -31.5t-11 -30.5q0 -27 19.5 -44.5t60.5 -40.5q39 -21 64 -39.5t42.5 -49t17.5 -74.5t-25 -80t-65.5 -56t-86.5 -20
t-76.5 8t-59.5 27q3 27 3 70q0 35 -1 49q10 4 28.5 7.5t32.5 3.5q6 -64 23.5 -90.5t57.5 -26.5q24 0 41.5 20.5t17.5 52.5q0 33 -22.5 53.5t-68.5 46.5q-37 21 -58.5 36.5t-37 40t-15.5 59.5q0 39 18 62t53 48q31 23 47 42.5t16 50.5q0 42 -32.5 73t-81.5 31q-45 0 -65 -29
t-20 -108v-521q-46 2 -85 2q-68 0 -106 -3q0 36 6 53q28 2 42 9.5t20 26.5t6 55v241q-11 5 -35.5 8.5z" />
    <glyph glyph-name="agrave" unicode="&#xe0;" horiz-adv-x="523" 
d="M491 64q0 -22 -8 -41q-31 -2 -66 -10.5t-63 -21.5q-14 5 -21 19t-7 39q0 15 3 33q-14 -34 -39 -54q-40 -35 -111 -35q-65 0 -100.5 28.5t-35.5 80.5q0 85 78 120.5t191 51.5q0 52 -4 75t-17 39q-23 27 -59 27q-42 0 -61.5 -34t-22.5 -80q-47 0 -68 9q2 24 2 38
q0 43 -7 77q41 19 91 30.5t94 11.5q84 0 127 -41q23 -24 33 -63t10 -107v-98q0 -32 4.5 -48t17 -23t38.5 -9zM312 226q-71 -10 -109 -30.5t-38 -69.5q0 -31 15 -47t38 -16q22 0 44 14.5t36 44t14 72.5v32zM107 699q35 16 83 16q12 0 32 -2q26 -89 70 -172q-17 -9 -57 -7
q-64 99 -128 165z" />
    <glyph glyph-name="aacute" unicode="&#xe1;" horiz-adv-x="523" 
d="M491 64q0 -22 -8 -41q-31 -2 -66 -10.5t-63 -21.5q-14 5 -21 19t-7 39q0 15 3 33q-14 -34 -39 -54q-40 -35 -111 -35q-65 0 -100.5 28.5t-35.5 80.5q0 85 78 120.5t191 51.5q0 52 -4 75t-17 39q-23 27 -59 27q-42 0 -61.5 -34t-22.5 -80q-47 0 -68 9q2 24 2 38
q0 43 -7 77q41 19 91 30.5t94 11.5q84 0 127 -41q23 -24 33 -63t10 -107v-98q0 -32 4.5 -48t17 -23t38.5 -9zM312 226q-71 -10 -109 -30.5t-38 -69.5q0 -31 15 -47t38 -16q22 0 44 14.5t36 44t14 72.5v32zM211 541q46 95 64 167q38 14 82 12q18 0 38 -6q-69 -82 -131 -183
q-31 -2 -53 10z" />
    <glyph glyph-name="acircumflex" unicode="&#xe2;" horiz-adv-x="523" 
d="M491 64q0 -22 -8 -41q-31 -2 -66 -10.5t-63 -21.5q-14 5 -21 19t-7 39q0 15 3 33q-14 -34 -39 -54q-40 -35 -111 -35q-65 0 -100.5 28.5t-35.5 80.5q0 85 78 120.5t191 51.5q0 52 -4 75t-17 39q-23 27 -59 27q-42 0 -61.5 -34t-22.5 -80q-47 0 -68 9q2 24 2 38
q0 43 -7 77q41 19 91 30.5t94 11.5q84 0 127 -41q23 -24 33 -63t10 -107v-98q0 -32 4.5 -48t17 -23t38.5 -9zM312 226q-71 -10 -109 -30.5t-38 -69.5q0 -31 15 -47t38 -16q22 0 44 14.5t36 44t14 72.5v32zM86.5 535q-6.5 13 -8.5 25q41 30 84 69t76 77q21 7 47 7
q66 -85 150 -165q-18 -21 -46 -27l-25 18q-9 6 -46.5 31.5t-67.5 41.5q-24 -12 -73 -44t-74 -52q-10 6 -16.5 19z" />
    <glyph glyph-name="atilde" unicode="&#xe3;" horiz-adv-x="523" 
d="M491 64q0 -22 -8 -41q-31 -2 -66 -10.5t-63 -21.5q-14 5 -21 19t-7 39q0 15 3 33q-14 -34 -39 -54q-40 -35 -111 -35q-65 0 -100.5 28.5t-35.5 80.5q0 85 78 120.5t191 51.5q0 52 -4 75t-17 39q-23 27 -59 27q-42 0 -61.5 -34t-22.5 -80q-47 0 -68 9q2 24 2 38
q0 43 -7 77q41 19 91 30.5t94 11.5q84 0 127 -41q23 -24 33 -63t10 -107v-98q0 -32 4.5 -48t17 -23t38.5 -9zM312 226q-71 -10 -109 -30.5t-38 -69.5q0 -31 15 -47t38 -16q22 0 44 14.5t36 44t14 72.5v32zM238 572q-23 12 -38.5 17.5t-32.5 5.5q-41 0 -80 -43q-17 15 -19 42
q59 74 122 74q18 0 33.5 -5.5t38.5 -17.5q19 -10 34 -15.5t30 -5.5q34 0 63 35q10 -1 20.5 -5.5t17.5 -11.5q-28 -49 -57 -71t-62 -22q-28 0 -70 23z" />
    <glyph glyph-name="adieresis" unicode="&#xe4;" horiz-adv-x="523" 
d="M491 64q0 -22 -8 -41q-31 -2 -66 -10.5t-63 -21.5q-14 5 -21 19t-7 39q0 15 3 33q-14 -34 -39 -54q-40 -35 -111 -35q-65 0 -100.5 28.5t-35.5 80.5q0 85 78 120.5t191 51.5q0 52 -4 75t-17 39q-23 27 -59 27q-42 0 -61.5 -34t-22.5 -80q-47 0 -68 9q2 24 2 38
q0 43 -7 77q41 19 91 30.5t94 11.5q84 0 127 -41q23 -24 33 -63t10 -107v-98q0 -32 4.5 -48t17 -23t38.5 -9zM312 226q-71 -10 -109 -30.5t-38 -69.5q0 -31 15 -47t38 -16q22 0 44 14.5t36 44t14 72.5v32zM94 542q-19 17 -19 42q0 28 16.5 47t49.5 19q34 0 51 -17.5
t17 -46.5q0 -26 -19 -43.5t-47 -17.5q-30 0 -49 17zM303.5 543q-18.5 18 -18.5 48q0 27 19 43t49 16q29 0 48.5 -17t19.5 -42q0 -28 -16 -47t-49 -19q-34 0 -52.5 18z" />
    <glyph glyph-name="aring" unicode="&#xe5;" horiz-adv-x="523" 
d="M491 64q0 -22 -8 -41q-31 -2 -66 -10.5t-63 -21.5q-14 5 -21 19t-7 39q0 15 3 33q-14 -34 -39 -54q-40 -35 -111 -35q-65 0 -100.5 28.5t-35.5 80.5q0 85 78 120.5t191 51.5q0 52 -4 75t-17 39q-23 27 -59 27q-42 0 -61.5 -34t-22.5 -80q-47 0 -68 9q2 24 2 38
q0 43 -7 77q41 19 91 30.5t94 11.5q84 0 127 -41q23 -24 33 -63t10 -107v-98q0 -32 4.5 -48t17 -23t38.5 -9zM312 226q-71 -10 -109 -30.5t-38 -69.5q0 -31 15 -47t38 -16q22 0 44 14.5t36 44t14 72.5v32zM168 548.5q-31 25.5 -31 66.5q0 43 33 71t82 28q45 0 76 -23t31 -68
q0 -43 -33 -71.5t-83 -28.5q-44 0 -75 25.5zM280 579.5q11 12.5 11 33.5q0 23 -12 42t-35 19q-17 0 -27.5 -14.5t-10.5 -39.5q0 -23 12.5 -38t34.5 -15q16 0 27 12.5z" />
    <glyph glyph-name="ae" unicode="&#xe6;" horiz-adv-x="715" 
d="M665.5 92q8.5 -12 9.5 -23q-62 -75 -177 -75q-59 0 -102 26.5t-68 70.5q-14 -43 -56.5 -70t-103.5 -27q-60 0 -92.5 28t-32.5 81q0 82 73 118.5t180 48.5v45q0 48 -21 73t-54 25q-38 0 -54.5 -30t-22.5 -82q-18 0 -38.5 2.5t-30.5 7.5q1 10 1 34q0 47 -6 81
q47 20 88.5 30.5t89.5 10.5q80 0 120 -58q26 30 62.5 44t74.5 14q57 0 95 -29.5t56 -73t20 -88.5q-5 -26 -22 -44q-134 -2 -240 -10q1 -66 29.5 -115t86.5 -49q72 0 119 53q8 -7 16.5 -19zM431.5 378.5q-17.5 -34.5 -17.5 -94.5v-10q49 4 150 8q0 54 -19 92.5t-61 38.5
q-35 0 -52.5 -34.5zM272.5 96.5q23.5 37.5 23.5 115.5v3v3q-74 -7 -108 -29t-34 -66q0 -34 17.5 -49t40.5 -15q37 0 60.5 37.5z" />
    <glyph glyph-name="ccedilla" unicode="&#xe7;" horiz-adv-x="457" 
d="M289 -8l-30 -40q41 -7 64.5 -31.5t23.5 -60.5q0 -47 -43 -74.5t-99 -27.5q-7 14 -7 37q32 0 55.5 14t23.5 38q0 22 -18 35.5t-45 13.5q-18 16 -18 41l38 55q-86 9 -141.5 69.5t-55.5 165.5q0 62 25.5 117t76 89t119.5 34q98 0 159 -43q-9 -50 -9 -119q-20 -11 -62 -11
q-4 57 -29 88t-64 31q-45 0 -71 -46t-26 -125q0 -76 36.5 -130t102.5 -54q32 0 60 12.5t48 35.5q20 -14 25 -38q-47 -67 -139 -76z" />
    <glyph glyph-name="egrave" unicode="&#xe8;" horiz-adv-x="494" 
d="M443.5 92q7.5 -12 8.5 -24q-36 -40 -82 -58.5t-105 -18.5q-112 0 -170 66t-58 171q0 68 27 122t77 85.5t116 31.5q98 0 146 -57t53 -153q-6 -25 -20 -41q-154 0 -274 -6q7 -69 40.5 -111t100.5 -42q34 0 67 13.5t57 38.5q9 -5 16.5 -17zM188 377.5q-25 -34.5 -28 -109.5
h175q0 67 -22 105.5t-61 38.5t-64 -34.5zM114 699q35 16 83 16q12 0 32 -2q26 -89 70 -172q-17 -9 -57 -7q-64 99 -128 165z" />
    <glyph glyph-name="eacute" unicode="&#xe9;" horiz-adv-x="494" 
d="M443.5 92q7.5 -12 8.5 -24q-36 -40 -82 -58.5t-105 -18.5q-112 0 -170 66t-58 171q0 68 27 122t77 85.5t116 31.5q98 0 146 -57t53 -153q-6 -25 -20 -41q-154 0 -274 -6q7 -69 40.5 -111t100.5 -42q34 0 67 13.5t57 38.5q9 -5 16.5 -17zM188 377.5q-25 -34.5 -28 -109.5
h175q0 67 -22 105.5t-61 38.5t-64 -34.5zM218 541q46 95 64 167q38 14 82 12q18 0 38 -6q-69 -82 -131 -183q-31 -2 -53 10z" />
    <glyph glyph-name="ecircumflex" unicode="&#xea;" horiz-adv-x="494" 
d="M443.5 92q7.5 -12 8.5 -24q-36 -40 -82 -58.5t-105 -18.5q-112 0 -170 66t-58 171q0 68 27 122t77 85.5t116 31.5q98 0 146 -57t53 -153q-6 -25 -20 -41q-154 0 -274 -6q7 -69 40.5 -111t100.5 -42q34 0 67 13.5t57 38.5q9 -5 16.5 -17zM188 377.5q-25 -34.5 -28 -109.5
h175q0 67 -22 105.5t-61 38.5t-64 -34.5zM93.5 535q-6.5 13 -8.5 25q41 30 84 69t76 77q21 7 47 7q66 -85 150 -165q-18 -21 -46 -27l-25 18q-9 6 -46.5 31.5t-67.5 41.5q-24 -12 -73 -44t-74 -52q-10 6 -16.5 19z" />
    <glyph glyph-name="edieresis" unicode="&#xeb;" horiz-adv-x="494" 
d="M443.5 92q7.5 -12 8.5 -24q-36 -40 -82 -58.5t-105 -18.5q-112 0 -170 66t-58 171q0 68 27 122t77 85.5t116 31.5q98 0 146 -57t53 -153q-6 -25 -20 -41q-154 0 -274 -6q7 -69 40.5 -111t100.5 -42q34 0 67 13.5t57 38.5q9 -5 16.5 -17zM188 377.5q-25 -34.5 -28 -109.5
h175q0 67 -22 105.5t-61 38.5t-64 -34.5zM101 542q-19 17 -19 42q0 28 16.5 47t49.5 19q34 0 51 -17.5t17 -46.5q0 -26 -19 -43.5t-47 -17.5q-30 0 -49 17zM310.5 543q-18.5 18 -18.5 48q0 27 19 43t49 16q29 0 48.5 -17t19.5 -42q0 -28 -16 -47t-49 -19q-34 0 -52.5 18z
" />
    <glyph glyph-name="igrave" unicode="&#xec;" horiz-adv-x="329" 
d="M42 50q40 1 54 19t14 68v178q0 26 -5.5 40.5t-21.5 22t-48 8.5q0 31 10 47q37 0 87.5 10.5t69.5 23.5q25 -10 25 -47v-283q0 -49 13.5 -67.5t47.5 -19.5q6 -19 6 -53q-48 3 -128 3q-85 0 -130 -3q0 35 6 53zM20 699q35 16 83 16q12 0 32 -2q26 -89 70 -172q-17 -9 -57 -7
q-64 99 -128 165z" />
    <glyph glyph-name="iacute" unicode="&#xed;" horiz-adv-x="329" 
d="M42 50q40 1 54 19t14 68v178q0 26 -5.5 40.5t-21.5 22t-48 8.5q0 31 10 47q37 0 87.5 10.5t69.5 23.5q25 -10 25 -47v-283q0 -49 13.5 -67.5t47.5 -19.5q6 -19 6 -53q-48 3 -128 3q-85 0 -130 -3q0 35 6 53zM124 541q46 95 64 167q38 14 82 12q18 0 38 -6
q-69 -82 -131 -183q-31 -2 -53 10z" />
    <glyph glyph-name="icircumflex" unicode="&#xee;" horiz-adv-x="329" 
d="M18 559q46 48 121 147q29 6 49 6q48 -74 115 -166q-9 -9 -24.5 -16t-30.5 -9q-59 65 -100 95q-53 -49 -92 -99q-28 13 -38 42zM42 50q40 1 54 19t14 68v178q0 26 -5.5 40.5t-21.5 22t-48 8.5q0 31 10 47q37 0 87.5 10.5t69.5 23.5q25 -10 25 -47v-283q0 -49 13.5 -67.5
t47.5 -19.5q6 -19 6 -53q-48 3 -128 3q-85 0 -130 -3q0 35 6 53z" />
    <glyph glyph-name="idieresis" unicode="&#xef;" horiz-adv-x="329" 
d="M26 542q-19 17 -19 42q0 28 16.5 47t49.5 19q34 0 51 -17.5t17 -46.5q0 -26 -19 -43.5t-47 -17.5q-30 0 -49 17zM198.5 543.5q-18.5 17.5 -18.5 47.5q0 27 18.5 43t48.5 16t49 -16.5t19 -42.5q0 -28 -15.5 -46.5t-48.5 -18.5q-34 0 -52.5 17.5zM42 50q40 1 54 19t14 68
v178q0 26 -5.5 40.5t-21.5 22t-48 8.5q0 31 10 47q37 0 87.5 10.5t69.5 23.5q25 -10 25 -47v-283q0 -49 13.5 -67.5t47.5 -19.5q6 -19 6 -53q-48 3 -128 3q-85 0 -130 -3q0 35 6 53z" />
    <glyph glyph-name="eth" unicode="&#xf0;" horiz-adv-x="546" 
d="M509 274q0 -136 -62 -209t-181 -73q-108 0 -168.5 60t-60.5 170q0 113 62.5 178t168.5 65q54 0 88 -22q-19 50 -53 94l-112 -57q-7 12 -12 30.5t-4 28.5l86 41q-52 45 -133 74q0 30 9 47q53 0 117 16q62 -37 112 -87l103 49q15 -32 15 -59l-79 -35q104 -132 104 -311z
M386 256q0 63 -11 121q-20 15 -48.5 23.5t-53.5 8.5q-55 0 -84 -46t-29 -129q0 -89 31.5 -137.5t84.5 -48.5q110 0 110 208z" />
    <glyph glyph-name="ntilde" unicode="&#xf1;" horiz-adv-x="630" 
d="M596 -3q-45 3 -118 3q-38 0 -131 -3q0 36 7 53q33 0 48 20t15 70v129q0 63 -22 89.5t-63 26.5q-27 0 -51 -18t-39 -54.5t-15 -90.5v-85q0 -50 14 -68.5t49 -18.5q7 -19 7 -53q-87 3 -128 3q-89 0 -133 -3q0 37 6 53q39 0 53.5 18.5t14.5 68.5v173q0 28 -5 43.5t-21 23.5
t-48 9q0 31 10 47q42 1 87 11.5t69 22.5q25 -10 25 -50q0 -28 -8 -59q1 3 7 14.5t15 22.5q20 27 58 47t84 20q66 0 109 -39.5t43 -123.5v-162q0 -50 12.5 -68.5t41.5 -18.5q7 -21 7 -53zM308 572q-23 12 -38.5 17.5t-32.5 5.5q-41 0 -80 -43q-17 15 -19 42q59 74 122 74
q18 0 33.5 -5.5t38.5 -17.5q19 -10 34 -15.5t30 -5.5q34 0 63 35q10 -1 20.5 -5.5t17.5 -11.5q-28 -49 -57 -71t-62 -22q-28 0 -70 23z" />
    <glyph glyph-name="ograve" unicode="&#xf2;" horiz-adv-x="553" 
d="M100.5 54.5q-63.5 63.5 -63.5 172.5q0 71 31 125.5t85.5 84.5t123.5 30q113 0 176 -64.5t63 -171.5q0 -71 -30 -125t-84.5 -84.5t-126.5 -30.5q-111 0 -174.5 63.5zM364 92.5q27 45.5 27 120.5q0 61 -17 106t-45.5 69t-62.5 24q-50 0 -76.5 -44t-26.5 -116q0 -95 33 -150
t90 -55q51 0 78 45.5zM132 699q35 16 83 16q12 0 32 -2q26 -89 70 -172q-17 -9 -57 -7q-64 99 -128 165z" />
    <glyph glyph-name="oacute" unicode="&#xf3;" horiz-adv-x="553" 
d="M100.5 54.5q-63.5 63.5 -63.5 172.5q0 71 31 125.5t85.5 84.5t123.5 30q113 0 176 -64.5t63 -171.5q0 -71 -30 -125t-84.5 -84.5t-126.5 -30.5q-111 0 -174.5 63.5zM364 92.5q27 45.5 27 120.5q0 61 -17 106t-45.5 69t-62.5 24q-50 0 -76.5 -44t-26.5 -116q0 -95 33 -150
t90 -55q51 0 78 45.5zM236 541q46 95 64 167q38 14 82 12q18 0 38 -6q-69 -82 -131 -183q-31 -2 -53 10z" />
    <glyph glyph-name="ocircumflex" unicode="&#xf4;" horiz-adv-x="553" 
d="M100.5 54.5q-63.5 63.5 -63.5 172.5q0 71 31 125.5t85.5 84.5t123.5 30q113 0 176 -64.5t63 -171.5q0 -71 -30 -125t-84.5 -84.5t-126.5 -30.5q-111 0 -174.5 63.5zM364 92.5q27 45.5 27 120.5q0 61 -17 106t-45.5 69t-62.5 24q-50 0 -76.5 -44t-26.5 -116q0 -95 33 -150
t90 -55q51 0 78 45.5zM111.5 535q-6.5 13 -8.5 25q41 30 84 69t76 77q21 7 47 7q66 -85 150 -165q-18 -21 -46 -27l-25 18q-9 6 -46.5 31.5t-67.5 41.5q-24 -12 -73 -44t-74 -52q-10 6 -16.5 19z" />
    <glyph glyph-name="otilde" unicode="&#xf5;" horiz-adv-x="553" 
d="M100.5 54.5q-63.5 63.5 -63.5 172.5q0 71 31 125.5t85.5 84.5t123.5 30q113 0 176 -64.5t63 -171.5q0 -71 -30 -125t-84.5 -84.5t-126.5 -30.5q-111 0 -174.5 63.5zM364 92.5q27 45.5 27 120.5q0 61 -17 106t-45.5 69t-62.5 24q-50 0 -76.5 -44t-26.5 -116q0 -95 33 -150
t90 -55q51 0 78 45.5zM263 572q-23 12 -38.5 17.5t-32.5 5.5q-41 0 -80 -43q-17 15 -19 42q59 74 122 74q18 0 33.5 -5.5t38.5 -17.5q19 -10 34 -15.5t30 -5.5q34 0 63 35q10 -1 20.5 -5.5t17.5 -11.5q-28 -49 -57 -71t-62 -22q-28 0 -70 23z" />
    <glyph glyph-name="odieresis" unicode="&#xf6;" horiz-adv-x="553" 
d="M100.5 54.5q-63.5 63.5 -63.5 172.5q0 71 31 125.5t85.5 84.5t123.5 30q113 0 176 -64.5t63 -171.5q0 -71 -30 -125t-84.5 -84.5t-126.5 -30.5q-111 0 -174.5 63.5zM364 92.5q27 45.5 27 120.5q0 61 -17 106t-45.5 69t-62.5 24q-50 0 -76.5 -44t-26.5 -116q0 -95 33 -150
t90 -55q51 0 78 45.5zM119 542q-19 17 -19 42q0 28 16.5 47t49.5 19q34 0 51 -17.5t17 -46.5q0 -26 -19 -43.5t-47 -17.5q-30 0 -49 17zM328.5 543q-18.5 18 -18.5 48q0 27 19 43t49 16q29 0 48.5 -17t19.5 -42q0 -28 -16 -47t-49 -19q-34 0 -52.5 18z" />
    <glyph glyph-name="divide" unicode="&#xf7;" 
d="M231.5 383q-16.5 17 -16.5 46q0 26 18 40t43 14t42 -14t17 -37q0 -29 -14 -47.5t-41 -18.5q-32 0 -48.5 17zM46 264.5q3 18.5 7 28.5h454q0 -20 -2 -34t-8 -26q-106 2 -212 2q-52 0 -152 -2l-90 -1q0 14 3 32.5zM233.5 60.5q-17.5 16.5 -17.5 40.5q0 26 14 42t44 16
q60 0 60 -58q0 -26 -16.5 -41.5t-41.5 -15.5t-42.5 16.5z" />
    <glyph glyph-name="oslash" unicode="&#xf8;" horiz-adv-x="553" 
d="M461 394q55 -63 55 -163q0 -71 -30 -125t-84.5 -84.5t-126.5 -30.5q-84 0 -141 37l-52 -60q-20 0 -37.5 4.5t-25.5 11.5l72 81q-54 63 -54 162q0 71 31 125.5t85.5 84.5t123.5 30q81 0 138 -34l50 56q19 0 37 -4.5t29 -11.5zM189.5 368q-26.5 -44 -26.5 -116
q0 -53 11 -95l177 207q-36 48 -85 48q-50 0 -76.5 -44zM364 92.5q27 45.5 27 120.5q0 50 -13 94l-180 -209q32 -51 88 -51q51 0 78 45.5z" />
    <glyph glyph-name="ugrave" unicode="&#xf9;" horiz-adv-x="589" 
d="M548 23q-32 -2 -68 -10.5t-64 -21.5q-15 6 -22 17.5t-7 40.5q0 19 4 43q-11 -26 -33 -48q-25 -25 -56.5 -37t-73.5 -12q-74 0 -110.5 41.5t-36.5 139.5v134q0 29 -4 44t-18 23t-43 9q0 31 8 47q41 1 82.5 11t66.5 23q25 -10 25 -50v-218q0 -68 16.5 -99.5t55.5 -31.5
q48 0 78 42.5t30 122.5v82q0 28 -5.5 43.5t-21 23.5t-47.5 9q0 17 1.5 27.5t6.5 19.5q48 1 91 9.5t67 19.5q25 -10 25 -50v-264q0 -44 11.5 -59t49.5 -16q2 -35 -8 -55zM141 699q35 16 83 16q12 0 32 -2q26 -89 70 -172q-17 -9 -57 -7q-64 99 -128 165z" />
    <glyph glyph-name="uacute" unicode="&#xfa;" horiz-adv-x="589" 
d="M548 23q-32 -2 -68 -10.5t-64 -21.5q-15 6 -22 17.5t-7 40.5q0 19 4 43q-11 -26 -33 -48q-25 -25 -56.5 -37t-73.5 -12q-74 0 -110.5 41.5t-36.5 139.5v134q0 29 -4 44t-18 23t-43 9q0 31 8 47q41 1 82.5 11t66.5 23q25 -10 25 -50v-218q0 -68 16.5 -99.5t55.5 -31.5
q48 0 78 42.5t30 122.5v82q0 28 -5.5 43.5t-21 23.5t-47.5 9q0 17 1.5 27.5t6.5 19.5q48 1 91 9.5t67 19.5q25 -10 25 -50v-264q0 -44 11.5 -59t49.5 -16q2 -35 -8 -55zM245 541q46 95 64 167q38 14 82 12q18 0 38 -6q-69 -82 -131 -183q-31 -2 -53 10z" />
    <glyph glyph-name="ucircumflex" unicode="&#xfb;" horiz-adv-x="589" 
d="M548 23q-32 -2 -68 -10.5t-64 -21.5q-15 6 -22 17.5t-7 40.5q0 19 4 43q-11 -26 -33 -48q-25 -25 -56.5 -37t-73.5 -12q-74 0 -110.5 41.5t-36.5 139.5v134q0 29 -4 44t-18 23t-43 9q0 31 8 47q41 1 82.5 11t66.5 23q25 -10 25 -50v-218q0 -68 16.5 -99.5t55.5 -31.5
q48 0 78 42.5t30 122.5v82q0 28 -5.5 43.5t-21 23.5t-47.5 9q0 17 1.5 27.5t6.5 19.5q48 1 91 9.5t67 19.5q25 -10 25 -50v-264q0 -44 11.5 -59t49.5 -16q2 -35 -8 -55zM120.5 535q-6.5 13 -8.5 25q41 30 84 69t76 77q21 7 47 7q66 -85 150 -165q-18 -21 -46 -27l-25 18
q-9 6 -46.5 31.5t-67.5 41.5q-24 -12 -73 -44t-74 -52q-10 6 -16.5 19z" />
    <glyph glyph-name="udieresis" unicode="&#xfc;" horiz-adv-x="589" 
d="M548 23q-32 -2 -68 -10.5t-64 -21.5q-15 6 -22 17.5t-7 40.5q0 19 4 43q-11 -26 -33 -48q-25 -25 -56.5 -37t-73.5 -12q-74 0 -110.5 41.5t-36.5 139.5v134q0 29 -4 44t-18 23t-43 9q0 31 8 47q41 1 82.5 11t66.5 23q25 -10 25 -50v-218q0 -68 16.5 -99.5t55.5 -31.5
q48 0 78 42.5t30 122.5v82q0 28 -5.5 43.5t-21 23.5t-47.5 9q0 17 1.5 27.5t6.5 19.5q48 1 91 9.5t67 19.5q25 -10 25 -50v-264q0 -44 11.5 -59t49.5 -16q2 -35 -8 -55zM128 542q-19 17 -19 42q0 28 16.5 47t49.5 19q34 0 51 -17.5t17 -46.5q0 -26 -19 -43.5t-47 -17.5
q-30 0 -49 17zM337.5 543q-18.5 18 -18.5 48q0 27 19 43t49 16q29 0 48.5 -17t19.5 -42q0 -28 -16 -47t-49 -19q-34 0 -52.5 18z" />
    <glyph glyph-name="yacute" unicode="&#xfd;" horiz-adv-x="552" 
d="M538 461q0 -35 -8 -53q-26 -7 -40.5 -25t-36.5 -70l-147 -350q-37 -90 -65.5 -135t-54 -61t-60.5 -16q-28 0 -50 9t-35 23q-3 12 -3 30q0 29 7 52q41 -9 78 -9q33 0 56.5 12.5t41.5 41.5q6 10 35 69q-97 220 -146 322q-29 62 -46.5 81.5t-42.5 25.5q-7 20 -7 52
q76 -2 124 -2q61 0 143 2q0 -31 -8 -52q-31 -5 -44.5 -14t-13.5 -26q0 -19 20 -61q39 -76 80 -187l2 4l69 174q16 39 16 63q0 21 -13 31t-41 16q-8 20 -8 52q31 -2 99 -2q69 0 99 3zM274 541q46 95 64 167q38 14 82 12q18 0 38 -6q-69 -82 -131 -183q-31 -2 -53 10z" />
    <glyph glyph-name="thorn" unicode="&#xfe;" horiz-adv-x="600" 
d="M223 3v-84q0 -43 9.5 -66.5t29.5 -33t56 -11.5q6 -17 6 -53q-50 3 -141 3q-105 0 -151 -3q0 35 5 53q28 2 42.5 10t20.5 27.5t6 56.5v663q0 26 -5.5 40.5t-21.5 22t-48 8.5q0 31 10 47q37 0 87.5 10.5t69.5 23.5q25 -10 25 -47v-236q0 -24 -4 -54q9 15 17 23
q18 24 54.5 44t80.5 20q90 0 141 -52.5t51 -157.5q0 -77 -32.5 -137.5t-92 -94.5t-137.5 -34q-33 0 -78 12zM256 350q-33 -44 -33 -136v-135q17 -17 36.5 -26t44.5 -9q52 0 93 42.5t41 146.5q0 71 -27.5 116t-74.5 45t-80 -44z" />
    <glyph glyph-name="ydieresis" unicode="&#xff;" horiz-adv-x="552" 
d="M538 461q0 -35 -8 -53q-26 -7 -40.5 -25t-36.5 -70l-147 -350q-37 -90 -65.5 -135t-54 -61t-60.5 -16q-28 0 -50 9t-35 23q-3 12 -3 30q0 29 7 52q41 -9 78 -9q33 0 56.5 12.5t41.5 41.5q6 10 35 69q-97 220 -146 322q-29 62 -46.5 81.5t-42.5 25.5q-7 20 -7 52
q76 -2 124 -2q61 0 143 2q0 -31 -8 -52q-31 -5 -44.5 -14t-13.5 -26q0 -19 20 -61q39 -76 80 -187l2 4l69 174q16 39 16 63q0 21 -13 31t-41 16q-8 20 -8 52q31 -2 99 -2q69 0 99 3zM157 542q-19 17 -19 42q0 28 16.5 47t49.5 19q34 0 51 -17.5t17 -46.5q0 -26 -19 -43.5
t-47 -17.5q-30 0 -49 17zM366.5 543q-18.5 18 -18.5 48q0 27 19 43t49 16q29 0 48.5 -17t19.5 -42q0 -28 -16 -47t-49 -19q-34 0 -52.5 18z" />
    <glyph glyph-name="Amacron" unicode="&#x100;" horiz-adv-x="708" 
d="M687 -3q-39 3 -126 3q-93 0 -131 -3q0 34 8 53q25 3 36.5 10t11.5 21q0 15 -14 46l-33 78q-155 0 -254 -5l-20 -52q-13 -33 -13 -55q0 -20 12 -30.5t37 -12.5q8 -24 8 -53q-34 3 -102 3q-29 0 -86 -3q0 31 8 52q26 5 40.5 25.5t39.5 80.5l208 522q21 5 49 5l234 -530
q19 -42 31 -62.5t22.5 -29t26.5 -10.5q7 -24 7 -53zM417 256l-65 152q-27 60 -46 119q-18 -58 -41 -119l-58 -152h210zM519 762q-166 0 -363 -5q0 11 2.5 27.5t6.5 26.5h363q0 -22 -9 -49z" />
    <glyph glyph-name="amacron" unicode="&#x101;" horiz-adv-x="523" 
d="M491 64q0 -22 -8 -41q-31 -2 -66 -10.5t-63 -21.5q-14 5 -21 19t-7 39q0 15 3 33q-14 -34 -39 -54q-40 -35 -111 -35q-65 0 -100.5 28.5t-35.5 80.5q0 85 78 120.5t191 51.5q0 52 -4 75t-17 39q-23 27 -59 27q-42 0 -61.5 -34t-22.5 -80q-47 0 -68 9q2 24 2 38
q0 43 -7 77q41 19 91 30.5t94 11.5q84 0 127 -41q23 -24 33 -63t10 -107v-98q0 -32 4.5 -48t17 -23t38.5 -9zM312 226q-71 -10 -109 -30.5t-38 -69.5q0 -31 15 -47t38 -16q22 0 44 14.5t36 44t14 72.5v32zM65.5 605q2.5 16 6.5 26h361q0 -23 -9 -47q-158 0 -361 -5
q0 10 2.5 26z" />
    <glyph glyph-name="Abreve" unicode="&#x102;" horiz-adv-x="708" 
d="M687 -3q-39 3 -126 3q-93 0 -131 -3q0 34 8 53q25 3 36.5 10t11.5 21q0 15 -14 46l-33 78q-155 0 -254 -5l-20 -52q-13 -33 -13 -55q0 -20 12 -30.5t37 -12.5q8 -24 8 -53q-34 3 -102 3q-29 0 -86 -3q0 31 8 52q26 5 40.5 25.5t39.5 80.5l208 522q21 5 49 5l234 -530
q19 -42 31 -62.5t22.5 -29t26.5 -10.5q7 -24 7 -53zM417 256l-65 152q-27 60 -46 119q-18 -58 -41 -119l-58 -152h210zM458.5 762q-41.5 -36 -118.5 -36q-76 0 -116 34.5t-40 101.5q22 10 47 10q9 0 14 -1q6 -33 34 -51.5t71 -18.5t69 18.5t28 51.5q6 1 18 1q20 0 35 -6
q0 -68 -41.5 -104z" />
    <glyph glyph-name="abreve" unicode="&#x103;" horiz-adv-x="523" 
d="M491 64q0 -22 -8 -41q-31 -2 -66 -10.5t-63 -21.5q-14 5 -21 19t-7 39q0 15 3 33q-14 -34 -39 -54q-40 -35 -111 -35q-65 0 -100.5 28.5t-35.5 80.5q0 85 78 120.5t191 51.5q0 52 -4 75t-17 39q-23 27 -59 27q-42 0 -61.5 -34t-22.5 -80q-47 0 -68 9q2 24 2 38
q0 43 -7 77q41 19 91 30.5t94 11.5q84 0 127 -41q23 -24 33 -63t10 -107v-98q0 -32 4.5 -48t17 -23t38.5 -9zM312 226q-71 -10 -109 -30.5t-38 -69.5q0 -31 15 -47t38 -16q22 0 44 14.5t36 44t14 72.5v32zM379 569.5q-47 -45.5 -133 -45.5q-85 0 -130.5 44.5t-45.5 126.5
q27 13 58 11q7 -47 41.5 -74t87.5 -27t85 27t34 74q32 2 50 -6q0 -85 -47 -130.5z" />
    <glyph glyph-name="Aogonek" unicode="&#x104;" horiz-adv-x="708" 
d="M613 -146q5 -9 7.5 -24t1.5 -28q-52 -20 -90 -49q-7 -2 -20 -2q-22 0 -47 10t-42.5 32.5t-17.5 58.5q0 43 29 80t93 68l-97 -3q0 34 8 53q25 3 36.5 10t11.5 21q0 15 -14 46l-33 78q-155 0 -254 -5l-20 -52q-13 -33 -13 -55q0 -20 12 -30.5t37 -12.5q8 -24 8 -53
q-34 3 -102 3q-29 0 -86 -3q0 31 8 52q26 5 40.5 25.5t39.5 80.5l208 522q21 5 49 5l234 -530q19 -42 31 -62.5t22.5 -29t26.5 -10.5q7 -24 7 -53l-79 3q-51 -17 -76.5 -45t-25.5 -57q0 -24 17.5 -37.5t49.5 -13.5q20 0 40 7zM417 256l-65 152q-27 60 -46 119
q-18 -58 -41 -119l-58 -152h210z" />
    <glyph glyph-name="aogonek" unicode="&#x105;" horiz-adv-x="523" 
d="M474 -146q5 -9 8 -24t2 -28q-54 -20 -91 -49q-7 -2 -20 -2q-42 0 -74.5 27.5t-32.5 81.5q0 79 85 132q-13 6 -19 19.5t-6 37.5q0 15 3 33q-14 -34 -39 -54q-40 -35 -111 -35q-65 0 -100.5 28.5t-35.5 80.5q0 85 78 120.5t191 51.5q0 52 -4 75t-17 39q-23 27 -59 27
q-42 0 -61.5 -34t-22.5 -80q-47 0 -68 9q2 24 2 38q0 43 -7 77q41 19 91 30.5t94 11.5q84 0 127 -41q23 -24 33 -63t10 -107v-98q0 -32 4.5 -48t17 -23t38.5 -9l1 -14q0 -22 -8 -41q-56 -16 -85.5 -48.5t-29.5 -71.5q0 -56 65 -56q21 0 41 7zM312 226q-71 -10 -109 -30.5
t-38 -69.5q0 -31 15 -47t38 -16q22 0 44 14.5t36 44t14 72.5v32z" />
    <glyph glyph-name="Cacute" unicode="&#x106;" horiz-adv-x="648" 
d="M191 35.5q-74 44.5 -115 124.5t-41 182q0 110 47 187.5t124 116.5t166 39q59 0 112.5 -13t108.5 -39q-11 -57 -11 -155q-21 -10 -66 -10q-2 93 -36.5 129.5t-100.5 36.5q-107 0 -159 -76t-52 -189q0 -88 28 -158t82 -110t129 -40q44 0 90 14t88 40q7 -6 13 -17t8 -20
q-55 -44 -113 -65.5t-133 -21.5q-95 0 -169 44.5zM331 741q33 63 57 130q32 8 61 8q27 0 53 -7q-52 -60 -114 -139q-34 0 -57 8z" />
    <glyph glyph-name="cacute" unicode="&#x107;" horiz-adv-x="457" 
d="M149 17.5q-51 26.5 -81.5 80t-30.5 129.5q0 62 25.5 117t76 89t119.5 34q98 0 159 -43q-9 -50 -9 -119q-20 -11 -62 -11q-4 57 -29 88t-64 31q-45 0 -71 -46t-26 -125q0 -76 36.5 -130t102.5 -54q32 0 60 12.5t48 35.5q20 -14 25 -38q-55 -77 -167 -77q-61 0 -112 26.5z
M218 541q46 95 64 167q38 14 82 12q18 0 38 -6q-69 -82 -131 -183q-31 -2 -53 10z" />
    <glyph glyph-name="Ccircumflex" unicode="&#x108;" horiz-adv-x="648" 
d="M191 35.5q-74 44.5 -115 124.5t-41 182q0 110 47 187.5t124 116.5t166 39q59 0 112.5 -13t108.5 -39q-11 -57 -11 -155q-21 -10 -66 -10q-2 93 -36.5 129.5t-100.5 36.5q-107 0 -159 -76t-52 -189q0 -88 28 -158t82 -110t129 -40q44 0 90 14t88 40q7 -6 13 -17t8 -20
q-55 -44 -113 -65.5t-133 -21.5q-95 0 -169 44.5zM221.5 743q-7.5 12 -10.5 24q87 56 143 110q20 5 50 5q56 -60 134 -120q-17 -24 -50 -33q-76 46 -121 66q-85 -41 -126 -67q-12 3 -19.5 15z" />
    <glyph glyph-name="ccircumflex" unicode="&#x109;" horiz-adv-x="457" 
d="M149 17.5q-51 26.5 -81.5 80t-30.5 129.5q0 62 25.5 117t76 89t119.5 34q98 0 159 -43q-9 -50 -9 -119q-20 -11 -62 -11q-4 57 -29 88t-64 31q-45 0 -71 -46t-26 -125q0 -76 36.5 -130t102.5 -54q32 0 60 12.5t48 35.5q20 -14 25 -38q-55 -77 -167 -77q-61 0 -112 26.5z
M93.5 535q-6.5 13 -8.5 25q41 30 84 69t76 77q21 7 47 7q66 -85 150 -165q-18 -21 -46 -27l-25 18q-9 6 -46.5 31.5t-67.5 41.5q-24 -12 -73 -44t-74 -52q-10 6 -16.5 19z" />
    <glyph glyph-name="Cdotaccent" unicode="&#x10a;" horiz-adv-x="648" 
d="M191 35.5q-74 44.5 -115 124.5t-41 182q0 110 47 187.5t124 116.5t166 39q59 0 112.5 -13t108.5 -39q-11 -57 -11 -155q-21 -10 -66 -10q-2 93 -36.5 129.5t-100.5 36.5q-107 0 -159 -76t-52 -189q0 -88 28 -158t82 -110t129 -40q44 0 90 14t88 40q7 -6 13 -17t8 -20
q-55 -44 -113 -65.5t-133 -21.5q-95 0 -169 44.5zM321 737q-20 18 -20 46q0 31 21 50t52 19q34 0 53.5 -18.5t19.5 -49.5q0 -27 -21 -46t-54 -19q-31 0 -51 18z" />
    <glyph glyph-name="cdotaccent" unicode="&#x10b;" horiz-adv-x="457" 
d="M149 17.5q-51 26.5 -81.5 80t-30.5 129.5q0 62 25.5 117t76 89t119.5 34q98 0 159 -43q-9 -50 -9 -119q-20 -11 -62 -11q-4 57 -29 88t-64 31q-45 0 -71 -46t-26 -125q0 -76 36.5 -130t102.5 -54q32 0 60 12.5t48 35.5q20 -14 25 -38q-55 -77 -167 -77q-61 0 -112 26.5z
M201 544q-20 18 -20 46q0 31 21 50t52 19q34 0 53.5 -18.5t19.5 -49.5q0 -27 -21 -46t-54 -19q-31 0 -51 18z" />
    <glyph glyph-name="Ccaron" unicode="&#x10c;" horiz-adv-x="648" 
d="M191 35.5q-74 44.5 -115 124.5t-41 182q0 110 47 187.5t124 116.5t166 39q59 0 112.5 -13t108.5 -39q-11 -57 -11 -155q-21 -10 -66 -10q-2 93 -36.5 129.5t-100.5 36.5q-107 0 -159 -76t-52 -189q0 -88 28 -158t82 -110t129 -40q44 0 90 14t88 40q7 -6 13 -17t8 -20
q-55 -44 -113 -65.5t-133 -21.5q-95 0 -169 44.5zM207 850q17 25 51 32q77 -46 120 -65q85 41 126 67q12 -4 19.5 -15.5t10.5 -23.5q-87 -56 -143 -110q-24 -6 -50 -6q-52 59 -134 121z" />
    <glyph glyph-name="ccaron" unicode="&#x10d;" horiz-adv-x="457" 
d="M149 17.5q-51 26.5 -81.5 80t-30.5 129.5q0 62 25.5 117t76 89t119.5 34q98 0 159 -43q-9 -50 -9 -119q-20 -11 -62 -11q-4 57 -29 88t-64 31q-45 0 -71 -46t-26 -125q0 -76 36.5 -130t102.5 -54q32 0 60 12.5t48 35.5q20 -14 25 -38q-55 -77 -167 -77q-61 0 -112 26.5z
M81 670q6 25 34 37q34 -24 73 -49.5t68 -39.5q24 12 70.5 43t63.5 46q13 -2 23.5 -11t16.5 -21q-41 -32 -83.5 -73t-73.5 -79q-23 -8 -48 -6q-71 87 -144 153z" />
    <glyph glyph-name="Dcaron" unicode="&#x10e;" horiz-adv-x="733" 
d="M593.5 609.5q104.5 -68.5 104.5 -254.5q0 -148 -65.5 -226.5t-148.5 -103.5t-162 -25q-199 0 -273 -3q0 37 6 53q28 2 42.5 10t20.5 29.5t6 62.5v381q0 37 -6 56t-20.5 27t-42.5 10q-5 18 -5 53q53 -3 159 -3q36 0 54 1l60 1q166 0 270.5 -68.5zM503.5 116.5
q63.5 63.5 63.5 222.5q0 151 -72.5 221t-182.5 70q-38 0 -65 -10v-467q0 -41 7 -62t25.5 -29.5t54.5 -8.5q106 0 169.5 63.5zM186 850q17 25 51 32q77 -46 120 -65q85 41 126 67q12 -4 19.5 -15.5t10.5 -23.5q-87 -56 -143 -110q-24 -6 -50 -6q-52 59 -134 121z" />
    <glyph glyph-name="dcaron" unicode="&#x10f;" horiz-adv-x="706" 
d="M680.5 694q9.5 -19 9.5 -54q0 -54 -20.5 -100.5t-61.5 -89.5q-30 0 -50 15q26 33 34.5 53.5t8.5 46.5q0 43 -54 49q0 44 11 75q57 8 92 31q21 -7 30.5 -26zM499 107.5q4 -15.5 17 -22.5t39 -7q2 -35 -8 -55q-32 -2 -68 -10.5t-64 -21.5q-15 6 -21.5 17.5t-6.5 40.5
q0 24 7 52q-13 -24 -30 -46q-18 -24 -54.5 -44t-80.5 -20q-90 0 -141 53.5t-51 162.5q0 74 33 133t92.5 93t136.5 34q33 0 78 -12v110q0 26 -5.5 40.5t-21.5 22t-48 8.5q0 31 10 47q37 0 87.5 10.5t69.5 23.5q26 -10 26 -47v-517q0 -30 4 -45.5zM344 108q33 44 33 136v135
q-17 17 -36.5 26t-44.5 9q-52 0 -93 -42.5t-41 -146.5q0 -52 14.5 -88.5t38 -54.5t49.5 -18q47 0 80 44z" />
    <glyph glyph-name="Dcroat" unicode="&#x110;" horiz-adv-x="733" 
d="M593.5 609.5q104.5 -68.5 104.5 -254.5q0 -148 -65.5 -226.5t-148.5 -103.5t-162 -25q-199 0 -273 -3q0 37 6 53q28 2 42.5 10t20.5 29.5t6 62.5v157l-71 -1q0 16 3 34.5t7 27.5h61v163q0 37 -6 56t-20.5 27t-42.5 10q-5 18 -5 53q53 -3 159 -3q36 0 54 1l60 1
q166 0 270.5 -68.5zM503.5 116.5q63.5 63.5 63.5 222.5q0 151 -72.5 221t-182.5 70q-38 0 -65 -10v-250h131q0 -39 -9 -61q-48 1 -122 1v-157q0 -41 7 -62t25.5 -29.5t54.5 -8.5q106 0 169.5 63.5z" />
    <glyph glyph-name="dcroat" unicode="&#x111;" horiz-adv-x="588" 
d="M495 525v-372q0 -30 4 -45.5t17 -22.5t39 -7q2 -35 -8 -55q-32 -2 -68 -10.5t-64 -21.5q-15 6 -21.5 17.5t-6.5 40.5q0 24 7 52q-13 -24 -30 -46q-18 -24 -54.5 -44t-80.5 -20q-90 0 -141 53.5t-51 162.5q0 74 33 133t92.5 93t136.5 34q33 0 78 -12v69q-59 0 -85 -1
q0 29 10 49h75q-1 34 -15.5 48.5t-59.5 15.5q0 31 10 47q37 0 87.5 10.5t69.5 23.5q26 -10 26 -47v-98h86q0 -21 -9 -47h-77zM344 108q33 44 33 136v135q-17 17 -36.5 26t-44.5 9q-52 0 -93 -42.5t-41 -146.5q0 -52 14.5 -88.5t38 -54.5t49.5 -18q47 0 80 44z" />
    <glyph glyph-name="Emacron" unicode="&#x112;" horiz-adv-x="614" 
d="M580 155q-22 -68 -31 -157q-90 2 -227 2q-199 0 -273 -3q0 37 6 53q28 2 42 10t20 29t6 63v381q0 37 -6 56t-20.5 27t-42.5 10q-5 18 -5 53q68 -3 196 -3q161 0 278 3q10 -113 21 -164q-22 -13 -60 -13q-6 57 -40 90.5t-117 33.5h-81v-261h46q58 0 80 16.5t23 62.5
q24 8 59 8q-3 -49 -3 -111q0 -67 3 -117q-37 0 -57 6q-4 49 -26 66t-79 17h-46v-160q0 -41 7.5 -62t26 -29.5t54.5 -8.5h9q59 0 92.5 14t51 40t33.5 75q39 -7 60 -27zM472 762q-166 0 -363 -5q0 11 2.5 27.5t6.5 26.5h363q0 -22 -9 -49z" />
    <glyph glyph-name="emacron" unicode="&#x113;" horiz-adv-x="494" 
d="M443.5 92q7.5 -12 8.5 -24q-36 -40 -82 -58.5t-105 -18.5q-112 0 -170 66t-58 171q0 68 27 122t77 85.5t116 31.5q98 0 146 -57t53 -153q-6 -25 -20 -41q-154 0 -274 -6q7 -69 40.5 -111t100.5 -42q34 0 67 13.5t57 38.5q9 -5 16.5 -17zM188 377.5q-25 -34.5 -28 -109.5
h175q0 67 -22 105.5t-61 38.5t-64 -34.5zM72.5 605q2.5 16 6.5 26h361q0 -23 -9 -47q-158 0 -361 -5q0 10 2.5 26z" />
    <glyph glyph-name="Ebreve" unicode="&#x114;" horiz-adv-x="614" 
d="M580 155q-22 -68 -31 -157q-90 2 -227 2q-199 0 -273 -3q0 37 6 53q28 2 42 10t20 29t6 63v381q0 37 -6 56t-20.5 27t-42.5 10q-5 18 -5 53q68 -3 196 -3q161 0 278 3q10 -113 21 -164q-22 -13 -60 -13q-6 57 -40 90.5t-117 33.5h-81v-261h46q58 0 80 16.5t23 62.5
q24 8 59 8q-3 -49 -3 -111q0 -67 3 -117q-37 0 -57 6q-4 49 -26 66t-79 17h-46v-160q0 -41 7.5 -62t26 -29.5t54.5 -8.5h9q59 0 92.5 14t51 40t33.5 75q39 -7 60 -27zM411.5 762q-41.5 -36 -118.5 -36q-76 0 -116 34.5t-40 101.5q22 10 47 10q9 0 14 -1q6 -33 34 -51.5
t71 -18.5t69 18.5t28 51.5q6 1 18 1q20 0 35 -6q0 -68 -41.5 -104z" />
    <glyph glyph-name="ebreve" unicode="&#x115;" horiz-adv-x="494" 
d="M443.5 92q7.5 -12 8.5 -24q-36 -40 -82 -58.5t-105 -18.5q-112 0 -170 66t-58 171q0 68 27 122t77 85.5t116 31.5q98 0 146 -57t53 -153q-6 -25 -20 -41q-154 0 -274 -6q7 -69 40.5 -111t100.5 -42q34 0 67 13.5t57 38.5q9 -5 16.5 -17zM188 377.5q-25 -34.5 -28 -109.5
h175q0 67 -22 105.5t-61 38.5t-64 -34.5zM386 569.5q-47 -45.5 -133 -45.5q-85 0 -130.5 44.5t-45.5 126.5q27 13 58 11q7 -47 41.5 -74t87.5 -27t85 27t34 74q32 2 50 -6q0 -85 -47 -130.5z" />
    <glyph glyph-name="Edotaccent" unicode="&#x116;" horiz-adv-x="614" 
d="M580 155q-22 -68 -31 -157q-90 2 -227 2q-199 0 -273 -3q0 37 6 53q28 2 42 10t20 29t6 63v381q0 37 -6 56t-20.5 27t-42.5 10q-5 18 -5 53q68 -3 196 -3q161 0 278 3q10 -113 21 -164q-22 -13 -60 -13q-6 57 -40 90.5t-117 33.5h-81v-261h46q58 0 80 16.5t23 62.5
q24 8 59 8q-3 -49 -3 -111q0 -67 3 -117q-37 0 -57 6q-4 49 -26 66t-79 17h-46v-160q0 -41 7.5 -62t26 -29.5t54.5 -8.5h9q59 0 92.5 14t51 40t33.5 75q39 -7 60 -27zM241 737q-20 18 -20 46q0 31 21 50t52 19q34 0 53.5 -18.5t19.5 -49.5q0 -27 -21 -46t-54 -19
q-31 0 -51 18z" />
    <glyph glyph-name="edotaccent" unicode="&#x117;" horiz-adv-x="494" 
d="M443.5 92q7.5 -12 8.5 -24q-36 -40 -82 -58.5t-105 -18.5q-112 0 -170 66t-58 171q0 68 27 122t77 85.5t116 31.5q98 0 146 -57t53 -153q-6 -25 -20 -41q-154 0 -274 -6q7 -69 40.5 -111t100.5 -42q34 0 67 13.5t57 38.5q9 -5 16.5 -17zM188 377.5q-25 -34.5 -28 -109.5
h175q0 67 -22 105.5t-61 38.5t-64 -34.5zM201 544q-20 18 -20 46q0 31 21 50t52 19q34 0 53.5 -18.5t19.5 -49.5q0 -27 -21 -46t-54 -19q-31 0 -51 18z" />
    <glyph glyph-name="Eogonek" unicode="&#x118;" horiz-adv-x="614" 
d="M421 -45.5q-25 -27.5 -25 -56.5q0 -24 17.5 -37.5t49.5 -13.5q20 0 40 7q5 -9 7.5 -24t1.5 -28q-52 -20 -90 -49q-7 -2 -20 -2q-22 0 -47 10t-42.5 32.5t-17.5 58.5q0 43 29 80t93 68h-95q-199 0 -273 -3q0 37 6 53q28 2 42 10t20 29t6 63v381q0 37 -6 56t-20.5 27
t-42.5 10q-5 18 -5 53q68 -3 196 -3q161 0 278 3q10 -113 21 -164q-22 -13 -60 -13q-6 57 -40 90.5t-117 33.5h-81v-261h46q58 0 80 16.5t23 62.5q24 8 59 8q-3 -49 -3 -111q0 -67 3 -117q-37 0 -57 6q-4 49 -26 66t-79 17h-46v-160q0 -41 7.5 -62t26 -29.5t54.5 -8.5h9
q59 0 92.5 14t51 40t33.5 75q39 -7 60 -27q-22 -68 -31 -157l-53 1q-50 -17 -75 -44.5z" />
    <glyph glyph-name="eogonek" unicode="&#x119;" horiz-adv-x="494" 
d="M443.5 92q7.5 -12 8.5 -24q-19 -20 -43 -38h1q-46 -31 -68 -60t-22 -63q0 -60 67 -60q20 0 40 7q5 -9 7.5 -24t1.5 -28q-52 -20 -90 -49q-7 -2 -20 -2q-41 0 -74 28t-33 85q0 36 18.5 67.5t65.5 61.5q-24 -2 -38 -2q-112 0 -170 66t-58 171q0 68 27 122t77 85.5t116 31.5
q98 0 146 -57t53 -153q-6 -25 -20 -41q-154 0 -274 -6q7 -69 40.5 -111t100.5 -42q34 0 67 13.5t57 38.5q9 -5 16.5 -17zM188 377.5q-25 -34.5 -28 -109.5h175q0 67 -22 105.5t-61 38.5t-64 -34.5z" />
    <glyph glyph-name="Ecaron" unicode="&#x11a;" horiz-adv-x="614" 
d="M580 155q-22 -68 -31 -157q-90 2 -227 2q-199 0 -273 -3q0 37 6 53q28 2 42 10t20 29t6 63v381q0 37 -6 56t-20.5 27t-42.5 10q-5 18 -5 53q68 -3 196 -3q161 0 278 3q10 -113 21 -164q-22 -13 -60 -13q-6 57 -40 90.5t-117 33.5h-81v-261h46q58 0 80 16.5t23 62.5
q24 8 59 8q-3 -49 -3 -111q0 -67 3 -117q-37 0 -57 6q-4 49 -26 66t-79 17h-46v-160q0 -41 7.5 -62t26 -29.5t54.5 -8.5h9q59 0 92.5 14t51 40t33.5 75q39 -7 60 -27zM127 850q17 25 51 32q77 -46 120 -65q85 41 126 67q12 -4 19.5 -15.5t10.5 -23.5q-87 -56 -143 -110
q-24 -6 -50 -6q-52 59 -134 121z" />
    <glyph glyph-name="ecaron" unicode="&#x11b;" horiz-adv-x="494" 
d="M443.5 92q7.5 -12 8.5 -24q-36 -40 -82 -58.5t-105 -18.5q-112 0 -170 66t-58 171q0 68 27 122t77 85.5t116 31.5q98 0 146 -57t53 -153q-6 -25 -20 -41q-154 0 -274 -6q7 -69 40.5 -111t100.5 -42q34 0 67 13.5t57 38.5q9 -5 16.5 -17zM188 377.5q-25 -34.5 -28 -109.5
h175q0 67 -22 105.5t-61 38.5t-64 -34.5zM81 670q6 25 34 37q34 -24 73 -49.5t68 -39.5q24 12 70.5 43t63.5 46q13 -2 23.5 -11t16.5 -21q-41 -32 -83.5 -73t-73.5 -79q-23 -8 -48 -6q-71 87 -144 153z" />
    <glyph glyph-name="Gcircumflex" unicode="&#x11c;" horiz-adv-x="722" 
d="M194 34.5q-76 43.5 -117.5 123.5t-41.5 188q0 107 47.5 183.5t127 116t175.5 39.5q67 0 129.5 -13t109.5 -35q-11 -57 -11 -155q-24 -11 -66 -11q-4 92 -44 127.5t-114 35.5q-73 0 -123 -36.5t-74 -97t-24 -132.5q0 -91 25.5 -163.5t75.5 -114t120 -41.5q27 0 46 2.5
t37 9.5t25.5 22.5t7.5 51.5v46q0 43 -6 61t-22 24.5t-54 7.5q-6 20 -6 55q29 -3 127 -3q97 0 124 2q0 -35 -6 -54q-20 -1 -29 -7t-12 -23.5t-3 -58.5v-39q0 -28 2.5 -45.5t11.5 -33.5q-47 -34 -114.5 -55t-146.5 -21q-101 0 -177 43.5zM227.5 743q-7.5 12 -10.5 24
q87 56 143 110q20 5 50 5q56 -60 134 -120q-17 -24 -50 -33q-76 46 -121 66q-85 -41 -126 -67q-12 3 -19.5 15z" />
    <glyph glyph-name="gcircumflex" unicode="&#x11d;" horiz-adv-x="531" 
d="M445.5 46q43.5 -25 43.5 -90q0 -51 -34.5 -98.5t-96.5 -77t-140 -29.5q-97 0 -140 33t-43 96q0 35 19 62t55 42q-24 11 -35 30t-11 49q0 58 56 109q-69 43 -69 130q0 74 50.5 119.5t142.5 45.5q40 0 70 -9h177q8 -25 8 -70q-43 13 -96 18q22 -23 33.5 -51t11.5 -53
q0 -71 -52 -116.5t-148 -45.5q-40 0 -73 9q-21 -21 -21 -39q0 -17 13.5 -25t43.5 -10.5t94 -2.5q98 -1 141.5 -26zM187.5 389q-18.5 -29 -18.5 -74q0 -59 24 -91t67 -32q32 0 50.5 26.5t18.5 75.5q0 55 -24 89.5t-65 34.5q-34 0 -52.5 -29zM346.5 -161.5
q37.5 27.5 37.5 68.5q0 23 -11.5 35t-42 17.5t-89.5 5.5q-40 0 -77 5q-15 -15 -21 -30.5t-6 -35.5q0 -48 25 -70.5t84 -22.5q63 0 100.5 27.5zM83.5 535q-6.5 13 -8.5 25q41 30 84 69t76 77q21 7 47 7q66 -85 150 -165q-18 -21 -46 -27l-25 18q-9 6 -46.5 31.5t-67.5 41.5
q-24 -12 -73 -44t-74 -52q-10 6 -16.5 19z" />
    <glyph glyph-name="Gbreve" unicode="&#x11e;" horiz-adv-x="722" 
d="M194 34.5q-76 43.5 -117.5 123.5t-41.5 188q0 107 47.5 183.5t127 116t175.5 39.5q67 0 129.5 -13t109.5 -35q-11 -57 -11 -155q-24 -11 -66 -11q-4 92 -44 127.5t-114 35.5q-73 0 -123 -36.5t-74 -97t-24 -132.5q0 -91 25.5 -163.5t75.5 -114t120 -41.5q27 0 46 2.5
t37 9.5t25.5 22.5t7.5 51.5v46q0 43 -6 61t-22 24.5t-54 7.5q-6 20 -6 55q29 -3 127 -3q97 0 124 2q0 -35 -6 -54q-20 -1 -29 -7t-12 -23.5t-3 -58.5v-39q0 -28 2.5 -45.5t11.5 -33.5q-47 -34 -114.5 -55t-146.5 -21q-101 0 -177 43.5zM497.5 762q-41.5 -36 -118.5 -36
q-76 0 -116 34.5t-40 101.5q22 10 47 10q9 0 14 -1q6 -33 34 -51.5t71 -18.5t69 18.5t28 51.5q6 1 18 1q20 0 35 -6q0 -68 -41.5 -104z" />
    <glyph glyph-name="gbreve" unicode="&#x11f;" horiz-adv-x="531" 
d="M445.5 46q43.5 -25 43.5 -90q0 -51 -34.5 -98.5t-96.5 -77t-140 -29.5q-97 0 -140 33t-43 96q0 35 19 62t55 42q-24 11 -35 30t-11 49q0 58 56 109q-69 43 -69 130q0 74 50.5 119.5t142.5 45.5q40 0 70 -9h177q8 -25 8 -70q-43 13 -96 18q22 -23 33.5 -51t11.5 -53
q0 -71 -52 -116.5t-148 -45.5q-40 0 -73 9q-21 -21 -21 -39q0 -17 13.5 -25t43.5 -10.5t94 -2.5q98 -1 141.5 -26zM187.5 389q-18.5 -29 -18.5 -74q0 -59 24 -91t67 -32q32 0 50.5 26.5t18.5 75.5q0 55 -24 89.5t-65 34.5q-34 0 -52.5 -29zM346.5 -161.5
q37.5 27.5 37.5 68.5q0 23 -11.5 35t-42 17.5t-89.5 5.5q-40 0 -77 5q-15 -15 -21 -30.5t-6 -35.5q0 -48 25 -70.5t84 -22.5q63 0 100.5 27.5zM376 569.5q-47 -45.5 -133 -45.5q-85 0 -130.5 44.5t-45.5 126.5q27 13 58 11q7 -47 41.5 -74t87.5 -27t85 27t34 74q32 2 50 -6
q0 -85 -47 -130.5z" />
    <glyph glyph-name="Gdotaccent" unicode="&#x120;" horiz-adv-x="722" 
d="M194 34.5q-76 43.5 -117.5 123.5t-41.5 188q0 107 47.5 183.5t127 116t175.5 39.5q67 0 129.5 -13t109.5 -35q-11 -57 -11 -155q-24 -11 -66 -11q-4 92 -44 127.5t-114 35.5q-73 0 -123 -36.5t-74 -97t-24 -132.5q0 -91 25.5 -163.5t75.5 -114t120 -41.5q27 0 46 2.5
t37 9.5t25.5 22.5t7.5 51.5v46q0 43 -6 61t-22 24.5t-54 7.5q-6 20 -6 55q29 -3 127 -3q97 0 124 2q0 -35 -6 -54q-20 -1 -29 -7t-12 -23.5t-3 -58.5v-39q0 -28 2.5 -45.5t11.5 -33.5q-47 -34 -114.5 -55t-146.5 -21q-101 0 -177 43.5zM327 737q-20 18 -20 46q0 31 21 50
t52 19q34 0 53.5 -18.5t19.5 -49.5q0 -27 -21 -46t-54 -19q-31 0 -51 18z" />
    <glyph glyph-name="gdotaccent" unicode="&#x121;" horiz-adv-x="531" 
d="M445.5 46q43.5 -25 43.5 -90q0 -51 -34.5 -98.5t-96.5 -77t-140 -29.5q-97 0 -140 33t-43 96q0 35 19 62t55 42q-24 11 -35 30t-11 49q0 58 56 109q-69 43 -69 130q0 74 50.5 119.5t142.5 45.5q40 0 70 -9h177q8 -25 8 -70q-43 13 -96 18q22 -23 33.5 -51t11.5 -53
q0 -71 -52 -116.5t-148 -45.5q-40 0 -73 9q-21 -21 -21 -39q0 -17 13.5 -25t43.5 -10.5t94 -2.5q98 -1 141.5 -26zM187.5 389q-18.5 -29 -18.5 -74q0 -59 24 -91t67 -32q32 0 50.5 26.5t18.5 75.5q0 55 -24 89.5t-65 34.5q-34 0 -52.5 -29zM346.5 -161.5
q37.5 27.5 37.5 68.5q0 23 -11.5 35t-42 17.5t-89.5 5.5q-40 0 -77 5q-15 -15 -21 -30.5t-6 -35.5q0 -48 25 -70.5t84 -22.5q63 0 100.5 27.5zM191 544q-20 18 -20 46q0 31 21 50t52 19q34 0 53.5 -18.5t19.5 -49.5q0 -27 -21 -46t-54 -19q-31 0 -51 18z" />
    <glyph glyph-name="Gcommaaccent" unicode="&#x122;" horiz-adv-x="722" 
d="M194 34.5q-76 43.5 -117.5 123.5t-41.5 188q0 107 47.5 183.5t127 116t175.5 39.5q67 0 129.5 -13t109.5 -35q-11 -57 -11 -155q-24 -11 -66 -11q-4 92 -44 127.5t-114 35.5q-73 0 -123 -36.5t-74 -97t-24 -132.5q0 -91 25.5 -163.5t75.5 -114t120 -41.5q27 0 46 2.5
t37 9.5t25.5 22.5t7.5 51.5v46q0 43 -6 61t-22 24.5t-54 7.5q-6 20 -6 55q29 -3 127 -3q97 0 124 2q0 -35 -6 -54q-20 -1 -29 -7t-12 -23.5t-3 -58.5v-39q0 -28 2.5 -45.5t11.5 -33.5q-47 -34 -114.5 -55t-146.5 -21q-101 0 -177 43.5zM447 -113q0 -52 -29.5 -96.5
t-78.5 -80.5q-28 3 -42 23q26 23 39.5 46t13.5 41q0 33 -45 38q-2 14 1 34.5t9 35.5q57 8 93 31q39 -14 39 -72z" />
    <glyph glyph-name="gcommaaccent" unicode="&#x123;" horiz-adv-x="531" 
d="M445.5 46q43.5 -25 43.5 -90q0 -51 -34.5 -98.5t-96.5 -77t-140 -29.5q-97 0 -140 33t-43 96q0 35 19 62t55 42q-24 11 -35 30t-11 49q0 58 56 109q-69 43 -69 130q0 74 50.5 119.5t142.5 45.5q40 0 70 -9h177q8 -25 8 -70q-43 13 -96 18q22 -23 33.5 -51t11.5 -53
q0 -71 -52 -116.5t-148 -45.5q-40 0 -73 9q-21 -21 -21 -39q0 -17 13.5 -25t43.5 -10.5t94 -2.5q98 -1 141.5 -26zM187.5 389q-18.5 -29 -18.5 -74q0 -59 24 -91t67 -32q32 0 50.5 26.5t18.5 75.5q0 55 -24 89.5t-65 34.5q-34 0 -52.5 -29zM346.5 -161.5
q37.5 27.5 37.5 68.5q0 23 -11.5 35t-42 17.5t-89.5 5.5q-40 0 -77 5q-15 -15 -21 -30.5t-6 -35.5q0 -48 25 -70.5t84 -22.5q63 0 100.5 27.5zM169 572q0 82 96 152q30 -3 42 -23q-40 -36 -40 -67q0 -15 10.5 -22t34.5 -9q1 -15 -2 -35.5t-9 -34.5q-52 -6 -92 -29
q-40 13 -40 68z" />
    <glyph glyph-name="Hcircumflex" unicode="&#x124;" horiz-adv-x="767" 
d="M650 87q6 -19 20 -27t42 -10q6 -19 6 -53q-55 3 -132 3q-83 0 -140 -3q0 30 7 53q28 2 42 10t19.5 27t5.5 57v177q-205 0 -274 -7v-170q0 -38 6 -57t20 -27t42 -10q6 -16 6 -53q-55 3 -131 3q-84 0 -140 -3q0 34 6 53q28 2 42 10t20 27t6 57v389q0 37 -6 56t-20 27
t-42 10q-6 21 -6 53q54 -3 137 -3q74 0 134 3q0 -15 -1 -29t-5 -24q-28 -2 -42 -10t-20 -27t-6 -56v-159h274v159q0 37 -5.5 56t-19.5 27t-42 10q-7 20 -7 53q54 -3 138 -3q74 0 134 3q0 -35 -6 -53q-28 -2 -42 -10t-20 -27t-6 -56v-389q0 -38 6 -57zM230.5 743
q-7.5 12 -10.5 24q87 56 143 110q20 5 50 5q56 -60 134 -120q-17 -24 -50 -33q-76 46 -121 66q-85 -41 -126 -67q-12 3 -19.5 15z" />
    <glyph glyph-name="hcircumflex" unicode="&#x125;" horiz-adv-x="626" 
d="M592 -3q-45 3 -118 3q-38 0 -131 -3q0 36 7 53q33 0 48 20t15 70v129q0 63 -22 89.5t-63 26.5q-27 0 -51 -18t-39 -54.5t-15 -90.5v-85q0 -50 14 -68.5t49 -18.5q7 -19 7 -53q-87 3 -129 3q-88 0 -132 -3q0 37 6 53q39 0 53.5 18.5t14.5 68.5v428q0 26 -5.5 40.5
t-21.5 22t-48 8.5q0 31 10 47q37 0 87.5 10.5t69.5 23.5q25 -10 25 -47v-253q0 -28 -8 -59q1 3 7 14.5t15 22.5q20 27 58 47t84 20q66 0 108.5 -39.5t42.5 -123.5v-162q0 -49 12.5 -68t42.5 -19q7 -21 7 -53zM84.5 775q-7.5 12 -10.5 24q87 56 143 110q20 5 50 5
q56 -60 134 -120q-17 -24 -50 -33q-76 46 -121 66q-85 -41 -126 -67q-12 3 -19.5 15z" />
    <glyph glyph-name="Hbar" unicode="&#x126;" horiz-adv-x="767" 
d="M650 87q6 -19 20 -27t42 -10q6 -19 6 -53q-55 3 -132 3q-83 0 -140 -3q0 30 7 53q28 2 42 10t19.5 27t5.5 57v177q-205 0 -274 -7v-170q0 -38 6 -57t20 -27t42 -10q6 -16 6 -53q-55 3 -131 3q-84 0 -140 -3q0 34 6 53q28 2 42 10t20 27t6 57v309l-67 -1q0 13 3 29.5
t8 26.5h56v25q0 37 -6 56t-20 27t-42 10q-6 21 -6 53q54 -3 137 -3q74 0 134 3q0 -15 -1 -29t-5 -24q-28 -2 -42 -10t-20 -27t-6 -56v-25h274v25q0 37 -5.5 56t-19.5 27t-42 10q-7 20 -7 53q54 -3 138 -3q74 0 134 3q0 -35 -6 -53q-28 -2 -42 -10t-20 -27t-6 -56v-25h66
q0 -28 -10 -52h-56v-312q0 -38 6 -57zM520 374v82q-88 0 -274 -2v-80h274z" />
    <glyph glyph-name="hbar" unicode="&#x127;" horiz-adv-x="626" 
d="M592 -3q-45 3 -118 3q-38 0 -131 -3q0 36 7 53q33 0 48 20t15 70v129q0 63 -22 89.5t-63 26.5q-27 0 -51 -18t-39 -54.5t-15 -90.5v-85q0 -50 14 -68.5t49 -18.5q7 -19 7 -53q-87 3 -129 3q-88 0 -132 -3q0 37 6 53q39 0 53.5 18.5t14.5 68.5v366l-95 -3q0 11 2.5 28
t6.5 28h86v9q0 26 -5.5 40.5t-21.5 22t-48 8.5q0 31 10 47q37 0 87.5 10.5t69.5 23.5q25 -10 25 -47v-114h95q0 -24 -9 -51h-86v-88q0 -28 -8 -59q1 3 7 14.5t15 22.5q20 27 58 47t84 20q66 0 108.5 -39.5t42.5 -123.5v-162q0 -49 12.5 -68t42.5 -19q7 -21 7 -53z" />
    <glyph glyph-name="Itilde" unicode="&#x128;" horiz-adv-x="369" 
d="M201.5 736.5q-13.5 5.5 -28.5 15.5q-14 9 -23.5 13t-23.5 4q-35 0 -75 -35q-19 13 -22 34q48 84 113 84q18 0 30 -4.5t29 -14.5q13 -8 23 -12t23 -4q35 0 60 29q23 -8 33 -25q-18 -47 -43 -68.5t-61 -21.5q-21 0 -34.5 5.5zM117 589q-6 19 -20 27t-42 10q-6 21 -6 53
q54 -3 137 -3q74 0 134 3q0 -15 -1 -29t-5 -24q-28 -2 -42 -10t-20 -27t-6 -56v-389q0 -38 6 -57t20 -27t42 -10q6 -16 6 -53q-55 3 -131 3q-84 0 -140 -3q0 34 6 53q28 2 42 10t20 27t6 57v389q0 37 -6 56z" />
    <glyph glyph-name="itilde" unicode="&#x129;" horiz-adv-x="329" 
d="M181.5 537q-13.5 6 -29.5 18q-12 9 -22.5 14t-25.5 5q-37 0 -80 -40q-21 12 -24 31q30 54 59.5 76.5t60.5 22.5q18 0 30.5 -5.5t28.5 -16.5q13 -9 24 -14t25 -5q16 0 32.5 8t28.5 24q24 -5 31 -19q-18 -57 -42.5 -81t-61.5 -24q-21 0 -34.5 6zM42 50q40 1 54 19t14 68
v178q0 26 -5.5 40.5t-21.5 22t-48 8.5q0 31 10 47q37 0 87.5 10.5t69.5 23.5q25 -10 25 -47v-283q0 -49 13.5 -67.5t47.5 -19.5q6 -19 6 -53q-48 3 -128 3q-85 0 -130 -3q0 35 6 53z" />
    <glyph glyph-name="Imacron" unicode="&#x12a;" horiz-adv-x="369" 
d="M61.5 785q2.5 17 7.5 26h243q0 -22 -10 -52q-117 0 -243 -6q0 15 2.5 32zM117 589q-6 19 -20 27t-42 10q-6 21 -6 53q54 -3 137 -3q74 0 134 3q0 -15 -1 -29t-5 -24q-28 -2 -42 -10t-20 -27t-6 -56v-389q0 -38 6 -57t20 -27t42 -10q6 -16 6 -53q-55 3 -131 3
q-84 0 -140 -3q0 34 6 53q28 2 42 10t20 27t6 57v389q0 37 -6 56z" />
    <glyph glyph-name="imacron" unicode="&#x12b;" horiz-adv-x="329" 
d="M43.5 603q2.5 18 6.5 28h232q0 -23 -9 -55q-107 0 -232 -5q0 14 2.5 32zM42 50q40 1 54 19t14 68v178q0 26 -5.5 40.5t-21.5 22t-48 8.5q0 31 10 47q37 0 87.5 10.5t69.5 23.5q25 -10 25 -47v-283q0 -49 13.5 -67.5t47.5 -19.5q6 -19 6 -53q-48 3 -128 3q-85 0 -130 -3
q0 35 6 53z" />
    <glyph glyph-name="Ibreve" unicode="&#x12c;" horiz-adv-x="369" 
d="M75.5 751.5q-36.5 37.5 -36.5 107.5q20 10 41 10q8 0 12 -1q7 -37 32.5 -58t67.5 -21t67 21t28 58q6 1 16 1q19 0 28 -6q0 -72 -37.5 -110.5t-110.5 -38.5q-71 0 -107.5 37.5zM117 589q-6 19 -20 27t-42 10q-6 21 -6 53q54 -3 137 -3q74 0 134 3q0 -15 -1 -29t-5 -24
q-28 -2 -42 -10t-20 -27t-6 -56v-389q0 -38 6 -57t20 -27t42 -10q6 -16 6 -53q-55 3 -131 3q-84 0 -140 -3q0 34 6 53q28 2 42 10t20 27t6 57v389q0 37 -6 56z" />
    <glyph glyph-name="ibreve" unicode="&#x12d;" horiz-adv-x="329" 
d="M47.5 568q-37.5 44 -37.5 127q27 13 59 11q7 -48 32 -74.5t67 -26.5q43 0 67.5 26.5t26.5 74.5q32 2 50 -6q0 -86 -38.5 -131t-114.5 -45q-74 0 -111.5 44zM42 50q40 1 54 19t14 68v178q0 26 -5.5 40.5t-21.5 22t-48 8.5q0 31 10 47q37 0 87.5 10.5t69.5 23.5
q25 -10 25 -47v-283q0 -49 13.5 -67.5t47.5 -19.5q6 -19 6 -53q-48 3 -128 3q-85 0 -130 -3q0 35 6 53z" />
    <glyph glyph-name="Iogonek" unicode="&#x12e;" horiz-adv-x="369" 
d="M167 -99q0 -27 17.5 -40.5t48.5 -13.5q22 0 40 7q6 -9 9 -23.5t1 -28.5q-54 -20 -91 -49q-7 -2 -20 -2q-38 0 -72.5 24.5t-34.5 78.5q0 84 107 146q-73 0 -123 -3q0 34 6 53q28 2 42 10t20 27t6 57v389q0 37 -6 56t-20 27t-42 10q-6 21 -6 53q54 -3 137 -3q74 0 134 3
q0 -15 -1 -29t-5 -24q-28 -2 -42 -10t-20 -27t-6 -56v-389q0 -38 6 -57t20 -27t42 -10q6 -16 6 -53l-83 3q-70 -43 -70 -99z" />
    <glyph glyph-name="iogonek" unicode="&#x12f;" horiz-adv-x="329" 
d="M107 580.5q-20 18.5 -20 45.5q0 31 21 50t52 19q34 0 53.5 -18t19.5 -50q0 -27 -21 -46t-54 -19q-31 0 -51 18.5zM259 -146q5 -9 8 -23.5t2 -28.5q-53 -19 -91 -49q-7 -2 -20 -2q-38 0 -72.5 24.5t-34.5 78.5q0 85 107 146q-80 0 -122 -3q0 35 6 53q40 1 54 19t14 68v178
q0 26 -5.5 40.5t-21.5 22t-48 8.5q0 31 10 47q37 0 87.5 10.5t69.5 23.5q25 -10 25 -47v-283q0 -49 13.5 -67.5t47.5 -19.5q6 -19 6 -53l-72 3q-70 -44 -70 -99q0 -27 17.5 -40.5t49.5 -13.5q20 0 40 7z" />
    <glyph glyph-name="Idotaccent" unicode="&#x130;" horiz-adv-x="369" 
d="M117 589q-6 19 -20 27t-42 10q-6 21 -6 53q54 -3 137 -3q74 0 134 3q0 -15 -1 -29t-5 -24q-28 -2 -42 -10t-20 -27t-6 -56v-389q0 -38 6 -57t20 -27t42 -10q6 -16 6 -53q-55 3 -131 3q-84 0 -140 -3q0 34 6 53q28 2 42 10t20 27t6 57v389q0 37 -6 56zM131 737
q-20 18 -20 46q0 31 21 50t52 19q34 0 53.5 -18.5t19.5 -49.5q0 -27 -21 -46t-54 -19q-31 0 -51 18z" />
    <glyph glyph-name="dotlessi" unicode="&#x131;" horiz-adv-x="329" 
d="M42 50q40 1 54 19t14 68v178q0 26 -5.5 40.5t-21.5 22t-48 8.5q0 31 10 47q37 0 87.5 10.5t69.5 23.5q25 -10 25 -47v-283q0 -49 13.5 -67.5t47.5 -19.5q6 -19 6 -53q-48 3 -128 3q-85 0 -130 -3q0 35 6 53z" />
    <glyph glyph-name="IJ" unicode="&#x132;" horiz-adv-x="650" 
d="M117 589q-6 19 -20 27t-42 10q-6 21 -6 53q54 -3 137 -3q74 0 134 3q0 -15 -1 -29t-5 -24q-28 -2 -42 -10t-20 -27t-6 -56v-389q0 -38 6 -57t20 -27t42 -10q6 -16 6 -53q-55 3 -131 3q-84 0 -140 -3q0 34 6 53q28 2 42 10t20 27t6 57v389q0 37 -6 56zM523.5 -38.5
q-15.5 -64.5 -61.5 -115.5t-137 -95q-20 13 -23 39q59 47 86 102.5t27 149.5v490q0 38 -5.5 57t-19.5 27t-42 10q-7 20 -7 53q49 -3 136 -3q91 0 136 3q0 -36 -6 -53q-28 -2 -42 -10t-20 -27.5t-6 -56.5v-404q0 -102 -15.5 -166.5z" />
    <glyph glyph-name="ij" unicode="&#x133;" horiz-adv-x="568" 
d="M107 580.5q-20 18.5 -20 45.5q0 31 21 50t52 19q34 0 53.5 -18t19.5 -50q0 -27 -21 -46t-54 -19q-31 0 -51 18.5zM377 580.5q-20 18.5 -20 45.5q0 31 21 50t52 19q34 0 53.5 -18t19.5 -50q0 -27 -21 -46t-54 -19q-31 0 -51 18.5zM42 50q40 1 54 19t14 68v178
q0 26 -5.5 40.5t-21.5 22t-48 8.5q0 31 10 47q37 0 87.5 10.5t69.5 23.5q25 -10 25 -47v-283q0 -49 13.5 -67.5t47.5 -19.5q6 -19 6 -53q-48 3 -128 3q-85 0 -130 -3q0 35 6 53zM294 -233q-8 11 -9 25q54 60 74 109.5t20 122.5v291q0 26 -5 40.5t-21 22t-48 8.5q0 31 10 47
q37 0 87 10.5t69 23.5q26 -10 26 -47v-373q0 -104 -54 -179.5t-129 -116.5q-12 5 -20 16z" />
    <glyph glyph-name="Jcircumflex" unicode="&#x134;" horiz-adv-x="347" 
d="M30 748q42 37 121 120q30 8 49 8q46 -58 115 -137q-9 -10 -24 -17.5t-31 -10.5q-48 42 -100 74q-53 -37 -92 -76q-29 12 -38 39zM219.5 -38.5q-15.5 -64.5 -61.5 -115.5t-137 -95q-20 13 -23 39q59 47 86 102.5t27 149.5v490q0 38 -5.5 57t-19.5 27t-42 10q-7 20 -7 53
q50 -3 136 -3q91 0 136 3q0 -36 -6 -53q-28 -2 -42 -10t-20 -27.5t-6 -56.5v-404q0 -102 -15.5 -166.5z" />
    <glyph glyph-name="jcircumflex" unicode="&#x135;" horiz-adv-x="297" 
d="M17 559q46 48 121 147q29 6 49 6q48 -74 115 -166q-9 -9 -24.5 -16t-30.5 -9q-59 65 -100 95q-53 -49 -92 -99q-29 14 -38 42zM23 -233q-8 11 -9 25q54 60 74 109.5t20 122.5v291q0 26 -5 40.5t-21 22t-48 8.5q0 31 10 47q37 0 87 10.5t69 23.5q26 -10 26 -47v-373
q0 -104 -54 -179.5t-129 -116.5q-12 5 -20 16z" />
    <glyph glyph-name="Kcommaaccent" unicode="&#x136;" horiz-adv-x="703" 
d="M606 77q29 -21 78 -25q0 -33 -7 -52q-128 0 -185 -7q-39 70 -110 166.5t-136 160.5v-176q0 -38 6 -57t20 -27t42 -10q6 -16 6 -53q-55 3 -131 3q-84 0 -140 -3q0 34 6 53q28 2 42 10t20 27t6 57v389q0 37 -6 56t-20 27t-42 10q-6 21 -6 53q54 -3 137 -3q74 0 134 3
q0 -15 -1 -29t-5 -24q-28 -2 -42 -10t-20 -27t-6 -56v-173l174 181q40 41 40 64q0 19 -31 21q-6 19 -6 53q34 -3 106 -3q77 0 117 3q0 -34 -8 -53q-36 -2 -67.5 -19.5t-74.5 -63.5l-147 -156q76 -79 190 -236q38 -53 67 -74zM421 -113q0 -52 -29.5 -96.5t-78.5 -80.5
q-28 3 -42 23q26 23 39.5 46t13.5 41q0 33 -45 38q-2 14 1 34.5t9 35.5q57 8 93 31q39 -14 39 -72z" />
    <glyph glyph-name="kcommaaccent" unicode="&#x137;" horiz-adv-x="578" 
d="M509 66q18 -11 50 -14q0 -33 -8 -52q-88 0 -145 -9q-27 43 -79 108t-104 121v-83q0 -49 12 -67.5t43 -19.5q6 -19 6 -53q-48 3 -124 3q-83 0 -128 -3q0 35 6 53q40 1 54 19t14 68v428q0 26 -5.5 40.5t-21.5 22t-48 8.5q0 31 10 47q37 0 87.5 10.5t69.5 23.5
q25 -10 25 -47v-413l72 66q56 49 56 70q0 15 -28 16q-8 27 -8 51q38 -2 123 -2q60 0 94 2q0 -28 -9 -52q-34 -2 -61 -14.5t-63 -45.5l-79 -72q56 -55 145 -166q26 -33 44 -44zM358 -113q0 -52 -29.5 -96.5t-78.5 -80.5q-28 3 -42 23q26 23 39.5 46t13.5 41q0 33 -45 38
q-2 14 1 34.5t9 35.5q57 8 93 31q39 -14 39 -72z" />
    <glyph glyph-name="kgreenlandic" unicode="&#x138;" horiz-adv-x="582" 
d="M502.5 71.5q12.5 -11.5 24.5 -15t36 -4.5q0 -33 -8 -52q-87 0 -144 -9q-28 43 -80.5 108t-103.5 121v-83q0 -49 12 -67.5t44 -19.5q5 -20 5 -53q-48 3 -124 3q-83 0 -128 -3q0 35 6 53q40 1 54 19t14 68v178q0 26 -5.5 40.5t-21.5 22t-48 8.5q0 31 10 47q37 0 87.5 10.5
t69.5 23.5q25 -10 25 -47v-163l72 66q56 49 56 70q0 15 -28 16q-8 27 -8 51q38 -2 123 -2q60 0 94 2q0 -28 -9 -52q-34 -2 -61 -14.5t-63 -45.5l-79 -72q61 -61 145 -166q21 -27 33.5 -38.5z" />
    <glyph glyph-name="Lacute" unicode="&#x139;" horiz-adv-x="583" 
d="M422 65.5q30 12.5 48.5 39.5t34.5 77q40 -7 60 -27q-20 -60 -31 -157q-88 2 -212 2q-199 0 -273 -3q0 37 6 53q28 2 42.5 10t20.5 29.5t6 62.5v381q0 37 -6 56t-20.5 27t-42.5 10q-5 18 -5 53q67 -3 135 -3q76 0 136 3q0 -36 -6 -53q-28 -2 -42 -10t-20 -27.5t-6 -57.5
v-378q0 -41 7 -62t25.5 -29.5t54.5 -8.5h9q49 0 79 12.5zM141 741q33 63 57 130q32 8 61 8q27 0 53 -7q-52 -60 -114 -139q-34 0 -57 8z" />
    <glyph glyph-name="lacute" unicode="&#x13a;" horiz-adv-x="321" 
d="M38 50q40 1 54 19t14 68v431q0 36 -15 51.5t-60 16.5q0 31 10 47q37 0 87.5 10.5t69.5 23.5q25 -10 25 -47v-533q0 -49 13.5 -67.5t47.5 -19.5q6 -19 6 -53q-48 3 -128 3q-85 0 -130 -3q0 35 6 53zM120 773q33 63 57 130q32 8 61 8q27 0 53 -7q-52 -60 -114 -139
q-34 0 -57 8z" />
    <glyph glyph-name="Lcommaaccent" unicode="&#x13b;" horiz-adv-x="583" 
d="M422 65.5q30 12.5 48.5 39.5t34.5 77q40 -7 60 -27q-20 -60 -31 -157q-88 2 -212 2q-199 0 -273 -3q0 37 6 53q28 2 42.5 10t20.5 29.5t6 62.5v381q0 37 -6 56t-20.5 27t-42.5 10q-5 18 -5 53q67 -3 135 -3q76 0 136 3q0 -36 -6 -53q-28 -2 -42 -10t-20 -27.5t-6 -57.5
v-378q0 -41 7 -62t25.5 -29.5t54.5 -8.5h9q49 0 79 12.5zM368 -113q0 -52 -29.5 -96.5t-78.5 -80.5q-28 3 -42 23q26 23 39.5 46t13.5 41q0 33 -45 38q-2 14 1 34.5t9 35.5q57 8 93 31q39 -14 39 -72z" />
    <glyph glyph-name="lcommaaccent" unicode="&#x13c;" horiz-adv-x="321" 
d="M38 50q40 1 54 19t14 68v431q0 36 -15 51.5t-60 16.5q0 31 10 47q37 0 87.5 10.5t69.5 23.5q25 -10 25 -47v-533q0 -49 13.5 -67.5t47.5 -19.5q6 -19 6 -53q-48 3 -128 3q-85 0 -130 -3q0 35 6 53zM230 -113q0 -52 -29.5 -96.5t-78.5 -80.5q-28 3 -42 23q26 23 39.5 46
t13.5 41q0 33 -45 38q-2 14 1 34.5t9 35.5q57 8 93 31q39 -14 39 -72z" />
    <glyph glyph-name="Lcaron" unicode="&#x13d;" horiz-adv-x="583" 
d="M422 65.5q30 12.5 48.5 39.5t34.5 77q40 -7 60 -27q-20 -60 -31 -157q-88 2 -212 2q-199 0 -273 -3q0 37 6 53q28 2 42.5 10t20.5 29.5t6 62.5v381q0 37 -6 56t-20.5 27t-42.5 10q-5 18 -5 53q67 -3 135 -3q76 0 136 3q0 -36 -6 -53q-28 -2 -42 -10t-20 -27.5t-6 -57.5
v-378q0 -41 7 -62t25.5 -29.5t54.5 -8.5h9q49 0 79 12.5zM533 539.5q-21 -46.5 -62 -89.5q-32 0 -50 15q27 34 35.5 54t8.5 46q0 42 -54 49q0 44 10 75q57 8 93 30q20 -7 30 -26t10 -54q0 -53 -21 -99.5z" />
    <glyph glyph-name="lcaron" unicode="&#x13e;" horiz-adv-x="462" 
d="M38 50q40 1 54 19t14 68v431q0 36 -15 51.5t-60 16.5q0 31 10 47q37 0 87.5 10.5t69.5 23.5q25 -10 25 -47v-533q0 -49 13.5 -67.5t47.5 -19.5q6 -19 6 -53q-48 3 -128 3q-85 0 -130 -3q0 35 6 53zM410 539.5q-21 -46.5 -62 -89.5q-32 0 -50 15q27 34 35.5 54t8.5 46
q0 42 -54 49q0 44 10 75q57 8 93 30q20 -7 30 -26t10 -54q0 -53 -21 -99.5z" />
    <glyph glyph-name="Ldot" unicode="&#x13f;" horiz-adv-x="583" 
d="M422 65.5q30 12.5 48.5 39.5t34.5 77q40 -7 60 -27q-20 -60 -31 -157q-88 2 -212 2q-199 0 -273 -3q0 37 6 53q28 2 42.5 10t20.5 29.5t6 62.5v381q0 37 -6 56t-20.5 27t-42.5 10q-5 18 -5 53q67 -3 135 -3q76 0 136 3q0 -36 -6 -53q-28 -2 -42 -10t-20 -27.5t-6 -57.5
v-378q0 -41 7 -62t25.5 -29.5t54.5 -8.5h9q49 0 79 12.5zM430.5 315.5q-16.5 15.5 -16.5 42.5q0 26 19 43t47 17q26 0 42.5 -17.5t16.5 -38.5q0 -29 -18 -45.5t-45 -16.5q-29 0 -45.5 15.5z" />
    <glyph glyph-name="ldot" unicode="&#x140;" horiz-adv-x="321" 
d="M38 50q40 1 54 19t14 68v431q0 36 -15 51.5t-60 16.5q0 31 10 47q37 0 87.5 10.5t69.5 23.5q25 -10 25 -47v-533q0 -49 13.5 -67.5t47.5 -19.5q6 -19 6 -53q-48 3 -128 3q-85 0 -130 -3q0 35 6 53zM281.5 306q-16.5 16 -16.5 42t18.5 43t46.5 17q26 0 42.5 -17.5
t16.5 -38.5q0 -29 -17.5 -45.5t-45.5 -16.5t-44.5 16z" />
    <glyph glyph-name="Lslash" unicode="&#x141;" horiz-adv-x="583" 
d="M565 155q-20 -60 -31 -157q-88 2 -212 2q-199 0 -273 -3q0 37 6 53q28 2 42.5 10t20.5 29.5t6 62.5v106l-77 -53q-10 15 -17 31t-8 27l102 68v202q0 37 -6 56t-20.5 27t-42.5 10q-5 18 -5 53q67 -3 135 -3q76 0 136 3q0 -36 -6 -53q-28 -2 -42 -10t-20 -27.5t-6 -57.5
v-136l81 54q9 -12 15.5 -28t8.5 -28l-105 -70v-170q0 -41 7 -62t25.5 -29.5t54.5 -8.5h9q49 0 79 12.5t48.5 39.5t34.5 77q40 -7 60 -27z" />
    <glyph glyph-name="lslash" unicode="&#x142;" horiz-adv-x="321" 
d="M236.5 69.5q13.5 -18.5 47.5 -19.5q6 -19 6 -53q-48 3 -128 3q-85 0 -130 -3q0 35 6 53q40 1 54 19t14 68v125l-80 -55q-10 15 -17 31t-8 27l105 70v233q0 36 -15 51.5t-60 16.5q0 31 10 47q37 0 87.5 10.5t69.5 23.5q25 -10 25 -47v-275l84 56q9 -12 15.5 -28t8.5 -28
l-108 -72v-186q0 -49 13.5 -67.5z" />
    <glyph glyph-name="Nacute" unicode="&#x143;" horiz-adv-x="733" 
d="M695 679q0 -35 -5 -53q-24 -1 -36.5 -13.5t-18 -42.5t-5.5 -86v-484q-22 -7 -57 -7l-393 519v-316q0 -58 6 -88.5t21.5 -43.5t44.5 -14q6 -18 6 -53q-45 3 -105 3q-72 0 -108 -3q0 34 5 53q29 1 44.5 14t22 43.5t6.5 88.5v391l-7 9q-13 16 -25.5 22t-40.5 8q-5 21 -5 53
q32 -3 90 -3q49 0 80 3l357 -478v283q0 57 -6 86.5t-21.5 42t-45.5 13.5q-6 28 -6 53q44 -3 104 -3q59 0 98 3zM328 741q33 63 57 130q32 8 61 8q27 0 53 -7q-52 -60 -114 -139q-34 0 -57 8z" />
    <glyph glyph-name="nacute" unicode="&#x144;" horiz-adv-x="630" 
d="M596 -3q-45 3 -118 3q-38 0 -131 -3q0 36 7 53q33 0 48 20t15 70v129q0 63 -22 89.5t-63 26.5q-27 0 -51 -18t-39 -54.5t-15 -90.5v-85q0 -50 14 -68.5t49 -18.5q7 -19 7 -53q-87 3 -128 3q-89 0 -133 -3q0 37 6 53q39 0 53.5 18.5t14.5 68.5v173q0 28 -5 43.5t-21 23.5
t-48 9q0 31 10 47q42 1 87 11.5t69 22.5q25 -10 25 -50q0 -28 -8 -59q1 3 7 14.5t15 22.5q20 27 58 47t84 20q66 0 109 -39.5t43 -123.5v-162q0 -50 12.5 -68.5t41.5 -18.5q7 -21 7 -53zM281 541q46 95 64 167q38 14 82 12q18 0 38 -6q-69 -82 -131 -183q-31 -2 -53 10z" />
    <glyph glyph-name="Ncommaaccent" unicode="&#x145;" horiz-adv-x="733" 
d="M695 679q0 -35 -5 -53q-24 -1 -36.5 -13.5t-18 -42.5t-5.5 -86v-484q-22 -7 -57 -7l-393 519v-316q0 -58 6 -88.5t21.5 -43.5t44.5 -14q6 -18 6 -53q-45 3 -105 3q-72 0 -108 -3q0 34 5 53q29 1 44.5 14t22 43.5t6.5 88.5v391l-7 9q-13 16 -25.5 22t-40.5 8q-5 21 -5 53
q32 -3 90 -3q49 0 80 3l357 -478v283q0 57 -6 86.5t-21.5 42t-45.5 13.5q-6 28 -6 53q44 -3 104 -3q59 0 98 3zM465 -113q0 -52 -29.5 -96.5t-78.5 -80.5q-28 3 -42 23q26 23 39.5 46t13.5 41q0 33 -45 38q-2 14 1 34.5t9 35.5q57 8 93 31q39 -14 39 -72z" />
    <glyph glyph-name="ncommaaccent" unicode="&#x146;" horiz-adv-x="630" 
d="M596 -3q-45 3 -118 3q-38 0 -131 -3q0 36 7 53q33 0 48 20t15 70v129q0 63 -22 89.5t-63 26.5q-27 0 -51 -18t-39 -54.5t-15 -90.5v-85q0 -50 14 -68.5t49 -18.5q7 -19 7 -53q-87 3 -128 3q-89 0 -133 -3q0 37 6 53q39 0 53.5 18.5t14.5 68.5v173q0 28 -5 43.5t-21 23.5
t-48 9q0 31 10 47q42 1 87 11.5t69 22.5q25 -10 25 -50q0 -28 -8 -59q1 3 7 14.5t15 22.5q20 27 58 47t84 20q66 0 109 -39.5t43 -123.5v-162q0 -50 12.5 -68.5t41.5 -18.5q7 -21 7 -53zM387 -113q0 -52 -29.5 -96.5t-78.5 -80.5q-28 3 -42 23q26 23 39.5 46t13.5 41
q0 33 -45 38q-2 14 1 34.5t9 35.5q57 8 93 31q39 -14 39 -72z" />
    <glyph glyph-name="Ncaron" unicode="&#x147;" horiz-adv-x="733" 
d="M695 679q0 -35 -5 -53q-24 -1 -36.5 -13.5t-18 -42.5t-5.5 -86v-484q-22 -7 -57 -7l-393 519v-316q0 -58 6 -88.5t21.5 -43.5t44.5 -14q6 -18 6 -53q-45 3 -105 3q-72 0 -108 -3q0 34 5 53q29 1 44.5 14t22 43.5t6.5 88.5v391l-7 9q-13 16 -25.5 22t-40.5 8q-5 21 -5 53
q32 -3 90 -3q49 0 80 3l357 -478v283q0 57 -6 86.5t-21.5 42t-45.5 13.5q-6 28 -6 53q44 -3 104 -3q59 0 98 3zM204 850q17 25 51 32q77 -46 120 -65q85 41 126 67q12 -4 19.5 -15.5t10.5 -23.5q-87 -56 -143 -110q-24 -6 -50 -6q-52 59 -134 121z" />
    <glyph glyph-name="ncaron" unicode="&#x148;" horiz-adv-x="630" 
d="M596 -3q-45 3 -118 3q-38 0 -131 -3q0 36 7 53q33 0 48 20t15 70v129q0 63 -22 89.5t-63 26.5q-27 0 -51 -18t-39 -54.5t-15 -90.5v-85q0 -50 14 -68.5t49 -18.5q7 -19 7 -53q-87 3 -128 3q-89 0 -133 -3q0 37 6 53q39 0 53.5 18.5t14.5 68.5v173q0 28 -5 43.5t-21 23.5
t-48 9q0 31 10 47q42 1 87 11.5t69 22.5q25 -10 25 -50q0 -28 -8 -59q1 3 7 14.5t15 22.5q20 27 58 47t84 20q66 0 109 -39.5t43 -123.5v-162q0 -50 12.5 -68.5t41.5 -18.5q7 -21 7 -53zM144 670q6 25 34 37q34 -24 73 -49.5t68 -39.5q24 12 70.5 43t63.5 46q13 -2 23.5 -11
t16.5 -21q-41 -32 -83.5 -73t-73.5 -79q-23 -8 -48 -6q-71 87 -144 153z" />
    <glyph glyph-name="napostrophe" unicode="&#x149;" horiz-adv-x="800" 
d="M185 525q-30 -58 -79 -104q-13 1 -25 6t-20 13q31 35 48 67.5t17 58.5q0 43 -54 50q0 44 11 75q57 8 92 31q21 -8 30.5 -27t9.5 -55q0 -57 -30 -115zM765 -3q-45 3 -118 3q-38 0 -131 -3q0 36 7 53q33 0 48 20t15 70v129q0 63 -22 89.5t-63 26.5q-27 0 -51 -18t-39 -54.5
t-15 -90.5v-85q0 -50 14 -68.5t49 -18.5q7 -19 7 -53q-87 3 -128 3q-89 0 -133 -3q0 37 6 53q39 0 53.5 18.5t14.5 68.5v173q0 28 -5 43.5t-21 23.5t-48 9q0 31 10 47q42 1 87 11.5t69 22.5q25 -10 25 -50q0 -28 -8 -59q1 3 7 14.5t15 22.5q20 27 58 47t84 20
q66 0 109 -39.5t43 -123.5v-162q0 -50 12.5 -68.5t41.5 -18.5q7 -21 7 -53z" />
    <glyph glyph-name="Eng" unicode="&#x14a;" horiz-adv-x="733" 
d="M695 679q0 -36 -5 -53q-24 -1 -36.5 -13.5t-18 -42.5t-5.5 -86v-356q0 -102 -15.5 -166.5t-61.5 -115.5t-137 -95q-20 13 -23 39q47 37 76 69t45 76t16 105v10l-350 462v-316q0 -58 6 -88.5t21.5 -43.5t44.5 -14q6 -18 6 -53q-45 3 -105 3q-84 0 -108 -2q0 33 5 52
q29 1 44.5 14t22 43.5t6.5 88.5v391l-7 9q-13 16 -25.5 22t-40.5 8q-5 21 -5 53q32 -3 90 -3q49 0 80 3l357 -478v283q0 57 -6 86.5t-21.5 42t-45.5 13.5q-6 28 -6 53q44 -3 104 -3q59 0 98 3z" />
    <glyph glyph-name="eng" unicode="&#x14b;" horiz-adv-x="606" 
d="M492 422.5q43 -39.5 43 -123.5v-204q0 -89 -27.5 -168.5t-75.5 -127.5t-108 -48q-28 0 -50 9t-36 23q-2 14 -2 27q0 35 7 55q41 -9 78 -9q42 0 62.5 18t27 53.5t6.5 101.5v240q0 63 -22 89.5t-63 26.5q-27 0 -51 -18t-39 -54.5t-15 -90.5v-85q0 -50 14 -68.5t49 -18.5
q7 -19 7 -53q-87 3 -128 3q-89 0 -133 -3q0 37 6 53q39 0 53.5 18.5t14.5 68.5v173q0 28 -5 43.5t-21 23.5t-48 9q0 31 10 47q42 1 87 11.5t69 22.5q25 -10 25 -50q0 -28 -8 -59q1 3 7 14.5t15 22.5q20 27 58 47t84 20q66 0 109 -39.5z" />
    <glyph glyph-name="Omacron" unicode="&#x14c;" horiz-adv-x="739" 
d="M193.5 36q-75.5 45 -117 124.5t-41.5 179.5q0 102 43.5 180t119.5 121.5t171 43.5q97 0 173.5 -43t119 -120t42.5 -178q0 -100 -42.5 -180.5t-118.5 -126.5t-174 -46q-100 0 -175.5 45zM486 83q42 35 64.5 96.5t22.5 139.5q0 86 -28.5 157t-79.5 112.5t-115 41.5
q-53 0 -95 -32.5t-65.5 -92.5t-23.5 -139q0 -85 26 -157.5t76 -116.5t119 -44q57 0 99 35zM547 762q-166 0 -363 -5q0 11 2.5 27.5t6.5 26.5h363q0 -22 -9 -49z" />
    <glyph glyph-name="omacron" unicode="&#x14d;" horiz-adv-x="553" 
d="M100.5 54.5q-63.5 63.5 -63.5 172.5q0 71 31 125.5t85.5 84.5t123.5 30q113 0 176 -64.5t63 -171.5q0 -71 -30 -125t-84.5 -84.5t-126.5 -30.5q-111 0 -174.5 63.5zM364 92.5q27 45.5 27 120.5q0 61 -17 106t-45.5 69t-62.5 24q-50 0 -76.5 -44t-26.5 -116q0 -95 33 -150
t90 -55q51 0 78 45.5zM90.5 605q2.5 16 6.5 26h361q0 -23 -9 -47q-158 0 -361 -5q0 10 2.5 26z" />
    <glyph glyph-name="Obreve" unicode="&#x14e;" horiz-adv-x="739" 
d="M193.5 36q-75.5 45 -117 124.5t-41.5 179.5q0 102 43.5 180t119.5 121.5t171 43.5q97 0 173.5 -43t119 -120t42.5 -178q0 -100 -42.5 -180.5t-118.5 -126.5t-174 -46q-100 0 -175.5 45zM486 83q42 35 64.5 96.5t22.5 139.5q0 86 -28.5 157t-79.5 112.5t-115 41.5
q-53 0 -95 -32.5t-65.5 -92.5t-23.5 -139q0 -85 26 -157.5t76 -116.5t119 -44q57 0 99 35zM486.5 762q-41.5 -36 -118.5 -36q-76 0 -116 34.5t-40 101.5q22 10 47 10q9 0 14 -1q6 -33 34 -51.5t71 -18.5t69 18.5t28 51.5q6 1 18 1q20 0 35 -6q0 -68 -41.5 -104z" />
    <glyph glyph-name="obreve" unicode="&#x14f;" horiz-adv-x="553" 
d="M100.5 54.5q-63.5 63.5 -63.5 172.5q0 71 31 125.5t85.5 84.5t123.5 30q113 0 176 -64.5t63 -171.5q0 -71 -30 -125t-84.5 -84.5t-126.5 -30.5q-111 0 -174.5 63.5zM364 92.5q27 45.5 27 120.5q0 61 -17 106t-45.5 69t-62.5 24q-50 0 -76.5 -44t-26.5 -116q0 -95 33 -150
t90 -55q51 0 78 45.5zM404 569.5q-47 -45.5 -133 -45.5q-85 0 -130.5 44.5t-45.5 126.5q27 13 58 11q7 -47 41.5 -74t87.5 -27t85 27t34 74q32 2 50 -6q0 -85 -47 -130.5z" />
    <glyph glyph-name="Ohungarumlaut" unicode="&#x150;" horiz-adv-x="739" 
d="M193.5 36q-75.5 45 -117 124.5t-41.5 179.5q0 102 43.5 180t119.5 121.5t171 43.5q97 0 173.5 -43t119 -120t42.5 -178q0 -100 -42.5 -180.5t-118.5 -126.5t-174 -46q-100 0 -175.5 45zM486 83q42 35 64.5 96.5t22.5 139.5q0 86 -28.5 157t-79.5 112.5t-115 41.5
q-53 0 -95 -32.5t-65.5 -92.5t-23.5 -139q0 -85 26 -157.5t76 -116.5t119 -44q57 0 99 35zM266.5 737.5q-14.5 4.5 -24.5 12.5q29 58 49 118q34 13 78 13q24 0 41 -7q-58 -62 -115 -141q-14 0 -28.5 4.5zM437.5 737.5q-14.5 4.5 -24.5 12.5q29 58 49 118q34 13 78 13
q23 0 41 -7q-64 -70 -115 -141q-14 0 -28.5 4.5z" />
    <glyph glyph-name="ohungarumlaut" unicode="&#x151;" horiz-adv-x="553" 
d="M100.5 54.5q-63.5 63.5 -63.5 172.5q0 71 31 125.5t85.5 84.5t123.5 30q113 0 176 -64.5t63 -171.5q0 -71 -30 -125t-84.5 -84.5t-126.5 -30.5q-111 0 -174.5 63.5zM364 92.5q27 45.5 27 120.5q0 61 -17 106t-45.5 69t-62.5 24q-50 0 -76.5 -44t-26.5 -116q0 -95 33 -150
t90 -55q51 0 78 45.5zM143 541q46 95 64 167q38 14 82 12q18 0 38 -6q-69 -82 -131 -183q-31 -2 -53 10zM314 541q44 89 64 167q38 14 82 12q17 0 39 -6q-69 -80 -132 -183q-31 -2 -53 10z" />
    <glyph glyph-name="OE" unicode="&#x152;" horiz-adv-x="979" 
d="M464 680q106 -4 173 -4q135 0 255 2q7 -105 21 -160q-21 -14 -61 -14q-6 57 -40.5 90.5t-118.5 33.5h-154q61 -40 92 -108t34 -156h12q53 0 73 18.5t20 58.5q30 9 60 9q-2 -48 -2 -113q0 -69 2 -115q-37 0 -57 6q-3 30 -11 47.5t-29.5 27t-61.5 9.5h-8q-5 -84 -36 -150.5
t-89 -108.5h185q52 0 82.5 14t47 40.5t32.5 74.5q40 -7 61 -27q-22 -68 -31 -157q-90 2 -239 2q-53 0 -188 -5q-90 -4 -130 -4q-99 0 -172 42.5t-112 120t-39 181.5q0 105 40 184t114 121.5t173 42.5q42 0 102 -3zM212.5 554.5q-49.5 -72.5 -49.5 -198.5q0 -92 24.5 -161.5
t71 -108t111.5 -38.5q76 0 121.5 72t45.5 207q0 94 -25.5 162t-68.5 103t-95 35q-86 0 -135.5 -72.5z" />
    <glyph glyph-name="oe" unicode="&#x153;" horiz-adv-x="805" 
d="M754.5 92q7.5 -12 8.5 -24q-68 -77 -181 -77q-49 0 -89 16.5t-67 48.5q-27 -32 -68 -48.5t-92 -16.5q-106 0 -167.5 63.5t-61.5 172.5q0 110 62.5 175t168.5 65q102 0 159 -65q54 65 150 65q92 0 139.5 -59.5t50.5 -151.5q-4 -24 -20 -41q-169 0 -261 -5q8 -72 43 -112.5
t92 -40.5q29 0 61.5 14t55.5 38q9 -5 16.5 -17zM345 91.5q25 44.5 25 121.5q0 92 -30.5 145.5t-82.5 53.5q-44 0 -69.5 -43t-25.5 -117q0 -94 31 -149.5t84 -55.5q43 0 68 44.5zM509 373.5q-22 -38.5 -25 -106.5h163q0 64 -21.5 104.5t-57.5 40.5q-37 0 -59 -38.5z" />
    <glyph glyph-name="Racute" unicode="&#x154;" horiz-adv-x="693" 
d="M587.5 88.5q14.5 -17.5 33.5 -25.5t51 -10q0 -33 -6 -53q-116 0 -176 -9q-31 54 -50 94.5t-23 49.5q-29 56 -51 89t-60 70l-31 -1l-29 1v-148q0 -39 5.5 -59t18.5 -28t38 -9q5 -16 5 -53q-42 3 -134 3q-79 0 -130 -3q0 35 6 53q28 2 42 10t20 27t6 57v389q0 38 -6 57.5
t-20.5 27.5t-42.5 9q-5 19 -5 52q37 -3 134 -3l79 1q64 2 99 2q112 0 169.5 -48.5t57.5 -125.5q0 -72 -43.5 -121t-118.5 -68q35 -30 58.5 -63t68.5 -112q20 -35 34.5 -52.5zM286 347q76 0 124.5 36.5t48.5 107.5q0 64 -36.5 99.5t-111.5 35.5q-31 0 -65 -8v-268
q24 -3 40 -3zM272 741q33 63 57 130q32 8 61 8q27 0 53 -7q-52 -60 -114 -139q-34 0 -57 8z" />
    <glyph glyph-name="racute" unicode="&#x155;" horiz-adv-x="449" 
d="M423.5 371q-2.5 -38 -1.5 -68q-11 -5 -31.5 -8t-38.5 -3q-2 42 -13.5 58t-33.5 16q-16 0 -34.5 -18.5t-31 -49t-12.5 -64.5v-73q0 -43 9.5 -66.5t29.5 -33t56 -11.5q6 -17 6 -53q-49 3 -141 3q-104 0 -151 -3q0 37 5 53q28 2 42.5 10t20.5 27.5t6 56.5v166q0 28 -5 43.5
t-21 23.5t-48 9q0 31 10 47q42 1 87 11.5t69 22.5q25 -10 25 -50q0 -22 -4.5 -46.5t-9.5 -48.5q3 9 10 28t13 28q23 37 54.5 59t69.5 22q37 0 70 -24q-4 -26 -6.5 -64zM206 541q46 95 64 167q38 14 82 12q18 0 38 -6q-69 -82 -131 -183q-31 -2 -53 10z" />
    <glyph glyph-name="Rcommaaccent" unicode="&#x156;" horiz-adv-x="693" 
d="M587.5 88.5q14.5 -17.5 33.5 -25.5t51 -10q0 -33 -6 -53q-116 0 -176 -9q-31 54 -50 94.5t-23 49.5q-29 56 -51 89t-60 70l-31 -1l-29 1v-148q0 -39 5.5 -59t18.5 -28t38 -9q5 -16 5 -53q-42 3 -134 3q-79 0 -130 -3q0 35 6 53q28 2 42 10t20 27t6 57v389q0 38 -6 57.5
t-20.5 27.5t-42.5 9q-5 19 -5 52q37 -3 134 -3l79 1q64 2 99 2q112 0 169.5 -48.5t57.5 -125.5q0 -72 -43.5 -121t-118.5 -68q35 -30 58.5 -63t68.5 -112q20 -35 34.5 -52.5zM286 347q76 0 124.5 36.5t48.5 107.5q0 64 -36.5 99.5t-111.5 35.5q-31 0 -65 -8v-268
q24 -3 40 -3zM430 -113q0 -52 -29.5 -96.5t-78.5 -80.5q-28 3 -42 23q26 23 39.5 46t13.5 41q0 33 -45 38q-2 14 1 34.5t9 35.5q57 8 93 31q39 -14 39 -72z" />
    <glyph glyph-name="rcommaaccent" unicode="&#x157;" horiz-adv-x="449" 
d="M423.5 371q-2.5 -38 -1.5 -68q-11 -5 -31.5 -8t-38.5 -3q-2 42 -13.5 58t-33.5 16q-16 0 -34.5 -18.5t-31 -49t-12.5 -64.5v-73q0 -43 9.5 -66.5t29.5 -33t56 -11.5q6 -17 6 -53q-49 3 -141 3q-104 0 -151 -3q0 37 5 53q28 2 42.5 10t20.5 27.5t6 56.5v166q0 28 -5 43.5
t-21 23.5t-48 9q0 31 10 47q42 1 87 11.5t69 22.5q25 -10 25 -50q0 -22 -4.5 -46.5t-9.5 -48.5q3 9 10 28t13 28q23 37 54.5 59t69.5 22q37 0 70 -24q-4 -26 -6.5 -64zM251 -113q0 -52 -29.5 -96.5t-78.5 -80.5q-28 3 -42 23q26 23 39.5 46t13.5 41q0 33 -45 38
q-2 14 1 34.5t9 35.5q57 8 93 31q39 -14 39 -72z" />
    <glyph glyph-name="Rcaron" unicode="&#x158;" horiz-adv-x="693" 
d="M587.5 88.5q14.5 -17.5 33.5 -25.5t51 -10q0 -33 -6 -53q-116 0 -176 -9q-31 54 -50 94.5t-23 49.5q-29 56 -51 89t-60 70l-31 -1l-29 1v-148q0 -39 5.5 -59t18.5 -28t38 -9q5 -16 5 -53q-42 3 -134 3q-79 0 -130 -3q0 35 6 53q28 2 42 10t20 27t6 57v389q0 38 -6 57.5
t-20.5 27.5t-42.5 9q-5 19 -5 52q37 -3 134 -3l79 1q64 2 99 2q112 0 169.5 -48.5t57.5 -125.5q0 -72 -43.5 -121t-118.5 -68q35 -30 58.5 -63t68.5 -112q20 -35 34.5 -52.5zM286 347q76 0 124.5 36.5t48.5 107.5q0 64 -36.5 99.5t-111.5 35.5q-31 0 -65 -8v-268
q24 -3 40 -3zM148 850q17 25 51 32q77 -46 120 -65q85 41 126 67q12 -4 19.5 -15.5t10.5 -23.5q-87 -56 -143 -110q-24 -6 -50 -6q-52 59 -134 121z" />
    <glyph glyph-name="rcaron" unicode="&#x159;" horiz-adv-x="449" 
d="M423.5 371q-2.5 -38 -1.5 -68q-11 -5 -31.5 -8t-38.5 -3q-2 42 -13.5 58t-33.5 16q-16 0 -34.5 -18.5t-31 -49t-12.5 -64.5v-73q0 -43 9.5 -66.5t29.5 -33t56 -11.5q6 -17 6 -53q-49 3 -141 3q-104 0 -151 -3q0 37 5 53q28 2 42.5 10t20.5 27.5t6 56.5v166q0 28 -5 43.5
t-21 23.5t-48 9q0 31 10 47q42 1 87 11.5t69 22.5q25 -10 25 -50q0 -22 -4.5 -46.5t-9.5 -48.5q3 9 10 28t13 28q23 37 54.5 59t69.5 22q37 0 70 -24q-4 -26 -6.5 -64zM69 670q6 25 34 37q34 -24 73 -49.5t68 -39.5q24 12 70.5 43t63.5 46q13 -2 23.5 -11t16.5 -21
q-41 -32 -83.5 -73t-73.5 -79q-23 -8 -48 -6q-71 87 -144 153z" />
    <glyph glyph-name="Sacute" unicode="&#x15a;" horiz-adv-x="555" 
d="M161 6.5q-50 15.5 -104 46.5q10 57 10 150q29 8 73 8q5 -85 37 -124t104 -39q60 0 89.5 26.5t29.5 67.5q0 33 -18.5 57t-46.5 40.5t-75 38.5q-61 28 -99 52.5t-64.5 65.5t-26.5 102q0 89 58 138t155 49q51 0 100 -12.5t78 -31.5q0 -96 6 -137q-25 -13 -73 -13
q-14 80 -41 110t-75 30t-75.5 -23t-27.5 -65q0 -35 19.5 -60t48.5 -42t79 -41q61 -29 99 -53t64.5 -63.5t26.5 -96.5q0 -56 -26.5 -100t-80.5 -70t-133 -26q-61 0 -111 15.5zM237 741q33 63 57 130q32 8 61 8q27 0 53 -7q-52 -60 -114 -139q-34 0 -57 8z" />
    <glyph glyph-name="sacute" unicode="&#x15b;" horiz-adv-x="446" 
d="M313 314q-4 42 -32 72t-72 30q-27 0 -43 -13.5t-16 -35.5q0 -17 7.5 -28.5t31.5 -25.5t75 -34q56 -22 87 -42.5t44.5 -44.5t13.5 -59q0 -65 -54.5 -103.5t-142.5 -38.5q-59 0 -97 8.5t-76 27.5q3 27 3 68q0 26 -2 56q21 14 66 14q7 -58 35.5 -88t74.5 -30q35 0 55.5 15.5
t20.5 40.5t-20 42t-82 42q-55 21 -85.5 40t-45.5 45.5t-15 67.5t25.5 69.5t66 43t84.5 14.5q48 0 84.5 -8t68.5 -25q-1 -13 -1 -40q0 -37 4 -65q-24 -15 -63 -15zM178 541q46 95 64 167q38 14 82 12q18 0 38 -6q-69 -82 -131 -183q-31 -2 -53 10z" />
    <glyph glyph-name="Scircumflex" unicode="&#x15c;" horiz-adv-x="555" 
d="M161 6.5q-50 15.5 -104 46.5q10 57 10 150q29 8 73 8q5 -85 37 -124t104 -39q60 0 89.5 26.5t29.5 67.5q0 33 -18.5 57t-46.5 40.5t-75 38.5q-61 28 -99 52.5t-64.5 65.5t-26.5 102q0 89 58 138t155 49q51 0 100 -12.5t78 -31.5q0 -96 6 -137q-25 -13 -73 -13
q-14 80 -41 110t-75 30t-75.5 -23t-27.5 -65q0 -35 19.5 -60t48.5 -42t79 -41q61 -29 99 -53t64.5 -63.5t26.5 -96.5q0 -56 -26.5 -100t-80.5 -70t-133 -26q-61 0 -111 15.5zM127.5 743q-7.5 12 -10.5 24q87 56 143 110q20 5 50 5q56 -60 134 -120q-17 -24 -50 -33
q-76 46 -121 66q-85 -41 -126 -67q-12 3 -19.5 15z" />
    <glyph glyph-name="scircumflex" unicode="&#x15d;" horiz-adv-x="446" 
d="M313 314q-4 42 -32 72t-72 30q-27 0 -43 -13.5t-16 -35.5q0 -17 7.5 -28.5t31.5 -25.5t75 -34q56 -22 87 -42.5t44.5 -44.5t13.5 -59q0 -65 -54.5 -103.5t-142.5 -38.5q-59 0 -97 8.5t-76 27.5q3 27 3 68q0 26 -2 56q21 14 66 14q7 -58 35.5 -88t74.5 -30q35 0 55.5 15.5
t20.5 40.5t-20 42t-82 42q-55 21 -85.5 40t-45.5 45.5t-15 67.5t25.5 69.5t66 43t84.5 14.5q48 0 84.5 -8t68.5 -25q-1 -13 -1 -40q0 -37 4 -65q-24 -15 -63 -15zM53.5 535q-6.5 13 -8.5 25q41 30 84 69t76 77q21 7 47 7q66 -85 150 -165q-18 -21 -46 -27l-25 18
q-9 6 -46.5 31.5t-67.5 41.5q-24 -12 -73 -44t-74 -52q-10 6 -16.5 19z" />
    <glyph glyph-name="Scedilla" unicode="&#x15e;" horiz-adv-x="555" 
d="M459.5 54.5q-52.5 -53.5 -153.5 -62.5l-30 -40q41 -7 64.5 -31.5t23.5 -60.5q0 -47 -43 -74.5t-99 -27.5q-7 14 -7 37q32 0 55.5 14t23.5 38q0 22 -18 35.5t-45 13.5q-18 16 -18 41l37 55q-53 2 -99 17t-94 44q10 57 10 150q29 8 73 8q5 -85 37 -124t104 -39
q60 0 89.5 26.5t29.5 67.5q0 33 -18.5 57t-46.5 40.5t-75 38.5q-61 28 -99 52.5t-64.5 65.5t-26.5 102q0 89 58 138t155 49q51 0 100 -12.5t78 -31.5q0 -96 6 -137q-25 -13 -73 -13q-14 80 -41 110t-75 30t-75.5 -23t-27.5 -65q0 -35 19.5 -60t48.5 -42t79 -41
q61 -29 99 -53t64.5 -63.5t26.5 -96.5q0 -79 -52.5 -132.5z" />
    <glyph glyph-name="scedilla" unicode="&#x15f;" horiz-adv-x="446" 
d="M361.5 34.5q-47.5 -37.5 -125.5 -42.5l-29 -40q41 -7 64.5 -31.5t23.5 -60.5q0 -47 -43 -74.5t-99 -27.5q-7 14 -7 37q32 0 55.5 14t23.5 38q0 22 -18 35.5t-45 13.5q-18 16 -18 41l37 55q-44 1 -76 9.5t-66 25.5q3 27 3 68q0 26 -2 56q21 14 66 14q7 -58 35.5 -88
t74.5 -30q35 0 55.5 15.5t20.5 40.5t-20 42t-82 42q-55 21 -85.5 40t-45.5 45.5t-15 67.5t25.5 69.5t66 43t84.5 14.5q48 0 84.5 -8t68.5 -25q-1 -13 -1 -40q0 -37 4 -65q-24 -15 -63 -15q-4 42 -32 72t-72 30q-27 0 -43 -13.5t-16 -35.5q0 -17 7.5 -28.5t31.5 -25.5t75 -34
q56 -22 87 -42.5t44.5 -44.5t13.5 -59q0 -61 -47.5 -98.5z" />
    <glyph glyph-name="Scaron" unicode="&#x160;" horiz-adv-x="555" 
d="M161 6.5q-50 15.5 -104 46.5q10 57 10 150q29 8 73 8q5 -85 37 -124t104 -39q60 0 89.5 26.5t29.5 67.5q0 33 -18.5 57t-46.5 40.5t-75 38.5q-61 28 -99 52.5t-64.5 65.5t-26.5 102q0 89 58 138t155 49q51 0 100 -12.5t78 -31.5q0 -96 6 -137q-25 -13 -73 -13
q-14 80 -41 110t-75 30t-75.5 -23t-27.5 -65q0 -35 19.5 -60t48.5 -42t79 -41q61 -29 99 -53t64.5 -63.5t26.5 -96.5q0 -56 -26.5 -100t-80.5 -70t-133 -26q-61 0 -111 15.5zM113 850q17 25 51 32q77 -46 120 -65q85 41 126 67q12 -4 19.5 -15.5t10.5 -23.5
q-87 -56 -143 -110q-24 -6 -50 -6q-52 59 -134 121z" />
    <glyph glyph-name="scaron" unicode="&#x161;" horiz-adv-x="446" 
d="M313 314q-4 42 -32 72t-72 30q-27 0 -43 -13.5t-16 -35.5q0 -17 7.5 -28.5t31.5 -25.5t75 -34q56 -22 87 -42.5t44.5 -44.5t13.5 -59q0 -65 -54.5 -103.5t-142.5 -38.5q-59 0 -97 8.5t-76 27.5q3 27 3 68q0 26 -2 56q21 14 66 14q7 -58 35.5 -88t74.5 -30q35 0 55.5 15.5
t20.5 40.5t-20 42t-82 42q-55 21 -85.5 40t-45.5 45.5t-15 67.5t25.5 69.5t66 43t84.5 14.5q48 0 84.5 -8t68.5 -25q-1 -13 -1 -40q0 -37 4 -65q-24 -15 -63 -15zM41 670q6 25 34 37q34 -24 73 -49.5t68 -39.5q24 12 70.5 43t63.5 46q13 -2 23.5 -11t16.5 -21
q-41 -32 -83.5 -73t-73.5 -79q-23 -8 -48 -6q-71 87 -144 153z" />
    <glyph glyph-name="uni0162" unicode="&#x162;" horiz-adv-x="622" 
d="M597 511q-28 -12 -65 -11q-5 63 -31.5 93t-81.5 30h-44v-479q0 -38 6.5 -57t23.5 -27t53 -10q7 -18 7 -53q-55 3 -131 3l-35 -48q41 -7 64.5 -31.5t23.5 -60.5q0 -47 -43 -74.5t-99 -27.5q-7 14 -7 37q32 0 55.5 14t23.5 38q0 22 -18 35.5t-45 13.5q-18 16 -18 41l43 63
q-77 0 -122 -3q0 35 7 53q36 2 54 10t25.5 27t7.5 57v479h-37q-43 0 -67.5 -14t-36.5 -39.5t-22 -69.5q-43 0 -63 10q19 97 19 169q63 -3 271 -3t271 3q-3 -71 11 -168z" />
    <glyph glyph-name="uni0163" unicode="&#x163;" horiz-adv-x="364" 
d="M260.5 -79.5q23.5 -24.5 23.5 -60.5q0 -47 -43 -74.5t-99 -27.5q-7 14 -7 37q32 0 55.5 14t23.5 38q0 22 -18 35.5t-45 13.5q-18 16 -18 41l40 59q-43 10 -63.5 43.5t-20.5 95.5v247q-32 11 -73 12q0 32 10 54h63v127q26 5 52.5 17.5t44.5 27.5q12 -5 16 -15.5t4 -41.5
v-115h127q0 -28 -9 -54q-66 -1 -118 -14v-226q0 -54 14 -77t41 -23q36 0 64 21q13 -18 15 -42q-17 -17 -49 -28.5t-66 -13.5l-29 -39q41 -7 64.5 -31.5z" />
    <glyph glyph-name="Tcaron" unicode="&#x164;" horiz-adv-x="622" 
d="M597 511q-28 -12 -65 -11q-5 63 -31.5 93t-81.5 30h-44v-479q0 -38 6.5 -57t23.5 -27t53 -10q7 -18 7 -53q-63 3 -149 3q-100 0 -159 -3q0 35 7 53q36 2 54 10t25.5 27t7.5 57v479h-37q-43 0 -67.5 -14t-36.5 -39.5t-22 -69.5q-43 0 -63 10q19 97 19 169q63 -3 271 -3
t271 3q-3 -71 11 -168zM147 850q17 25 51 32q77 -46 120 -65q85 41 126 67q12 -4 19.5 -15.5t10.5 -23.5q-87 -56 -143 -110q-24 -6 -50 -6q-52 59 -134 121z" />
    <glyph glyph-name="tcaron" unicode="&#x165;" horiz-adv-x="491" 
d="M483.5 539.5q-20.5 -46.5 -61.5 -89.5q-30 0 -50 15q26 33 34.5 53.5t8.5 46.5q0 43 -54 49q0 44 11 75q57 8 92 31q21 -7 30.5 -26t9.5 -54q0 -54 -20.5 -100.5zM120 25q-31 34 -31 110v247q-32 11 -73 12q0 32 10 54h63v127q26 5 52.5 17.5t44.5 27.5q12 -5 16 -15.5
t4 -41.5v-115h127q0 -28 -9 -54q-66 -1 -118 -14v-226q0 -54 14 -77t41 -23q36 0 64 21q13 -18 15 -42q-18 -18 -53 -30t-70 -12q-66 0 -97 34z" />
    <glyph glyph-name="Tbar" unicode="&#x166;" horiz-adv-x="622" 
d="M597 511q-28 -12 -65 -11q-5 63 -31.5 93t-81.5 30h-44v-244h131q0 -40 -11 -61q-48 1 -120 1v-175q0 -38 6.5 -57t23.5 -27t53 -10q7 -18 7 -53q-63 3 -149 3q-100 0 -159 -3q0 35 7 53q36 2 54 10t25.5 27t7.5 57v175l-84 -1l-44 -1q0 16 3.5 34t8.5 28h116v244h-37
q-43 0 -67.5 -14t-36.5 -39.5t-22 -69.5q-43 0 -63 10q19 97 19 169q63 -3 271 -3t271 3q-3 -71 11 -168z" />
    <glyph glyph-name="tbar" unicode="&#x167;" horiz-adv-x="364" 
d="M340 33q-18 -18 -53 -30t-70 -12q-66 0 -97 34t-31 110v90q-59 0 -85 -1q0 29 10 49h75v109q-32 11 -73 12q0 32 10 54h63v127q26 5 52.5 17.5t44.5 27.5q12 -5 16 -15.5t4 -41.5v-115h127q0 -28 -9 -54q-66 -1 -118 -14v-107h87q0 -21 -9 -47h-78v-72q0 -54 14 -77
t41 -23q36 0 64 21q13 -18 15 -42z" />
    <glyph glyph-name="Utilde" unicode="&#x168;" horiz-adv-x="681" 
d="M565 130q-12 -50 -46 -83q-56 -56 -166 -56q-94 0 -148.5 26.5t-78 79.5t-23.5 136v299q0 39 -5 57.5t-17 25.5t-39 11q-6 19 -6 53q40 -3 121 -3q95 0 142 3q0 -32 -5 -53q-31 -3 -44.5 -10t-18.5 -25.5t-5 -58.5v-284q0 -94 35.5 -145t118.5 -51q27 0 54.5 9.5
t45.5 29.5q22 23 30.5 61t8.5 116v229q0 50 -5.5 76t-19.5 38t-43 15q-5 28 -5 53q36 -3 99 -3q59 0 98 3q0 -27 -6 -53q-24 -3 -37 -14.5t-18 -37t-5 -74.5v-229q0 -91 -12 -141zM392 749.5q-16 5.5 -38 15.5q-23 10 -35.5 14t-27.5 4q-39 0 -73 -36q-19 17 -20 44
q27 36 58 51.5t62 15.5q20 0 36 -5t41 -15q19 -9 32 -13t26 -4q31 0 58 30q25 -4 37 -20q-47 -87 -121 -87q-19 0 -35 5.5z" />
    <glyph glyph-name="utilde" unicode="&#x169;" horiz-adv-x="589" 
d="M548 23q-32 -2 -68 -10.5t-64 -21.5q-15 6 -22 17.5t-7 40.5q0 19 4 43q-11 -26 -33 -48q-25 -25 -56.5 -37t-73.5 -12q-74 0 -110.5 41.5t-36.5 139.5v134q0 29 -4 44t-18 23t-43 9q0 31 8 47q41 1 82.5 11t66.5 23q25 -10 25 -50v-218q0 -68 16.5 -99.5t55.5 -31.5
q48 0 78 42.5t30 122.5v82q0 28 -5.5 43.5t-21 23.5t-47.5 9q0 17 1.5 27.5t6.5 19.5q48 1 91 9.5t67 19.5q25 -10 25 -50v-264q0 -44 11.5 -59t49.5 -16q2 -35 -8 -55zM272 572q-23 12 -38.5 17.5t-32.5 5.5q-41 0 -80 -43q-17 15 -19 42q59 74 122 74q18 0 33.5 -5.5
t38.5 -17.5q19 -10 34 -15.5t30 -5.5q34 0 63 35q10 -1 20.5 -5.5t17.5 -11.5q-28 -49 -57 -71t-62 -22q-28 0 -70 23z" />
    <glyph glyph-name="Umacron" unicode="&#x16a;" horiz-adv-x="681" 
d="M565 130q-12 -50 -46 -83q-56 -56 -166 -56q-94 0 -148.5 26.5t-78 79.5t-23.5 136v299q0 39 -5 57.5t-17 25.5t-39 11q-6 19 -6 53q40 -3 121 -3q95 0 142 3q0 -32 -5 -53q-31 -3 -44.5 -10t-18.5 -25.5t-5 -58.5v-284q0 -94 35.5 -145t118.5 -51q27 0 54.5 9.5
t45.5 29.5q22 23 30.5 61t8.5 116v229q0 50 -5.5 76t-19.5 38t-43 15q-5 28 -5 53q36 -3 99 -3q59 0 98 3q0 -27 -6 -53q-24 -3 -37 -14.5t-18 -37t-5 -74.5v-229q0 -91 -12 -141zM550 762q-166 0 -363 -5q0 11 2.5 27.5t6.5 26.5h363q0 -22 -9 -49z" />
    <glyph glyph-name="umacron" unicode="&#x16b;" horiz-adv-x="589" 
d="M548 23q-32 -2 -68 -10.5t-64 -21.5q-15 6 -22 17.5t-7 40.5q0 19 4 43q-11 -26 -33 -48q-25 -25 -56.5 -37t-73.5 -12q-74 0 -110.5 41.5t-36.5 139.5v134q0 29 -4 44t-18 23t-43 9q0 31 8 47q41 1 82.5 11t66.5 23q25 -10 25 -50v-218q0 -68 16.5 -99.5t55.5 -31.5
q48 0 78 42.5t30 122.5v82q0 28 -5.5 43.5t-21 23.5t-47.5 9q0 17 1.5 27.5t6.5 19.5q48 1 91 9.5t67 19.5q25 -10 25 -50v-264q0 -44 11.5 -59t49.5 -16q2 -35 -8 -55zM99.5 605q2.5 16 6.5 26h361q0 -23 -9 -47q-158 0 -361 -5q0 10 2.5 26z" />
    <glyph glyph-name="Ubreve" unicode="&#x16c;" horiz-adv-x="681" 
d="M565 130q-12 -50 -46 -83q-56 -56 -166 -56q-94 0 -148.5 26.5t-78 79.5t-23.5 136v299q0 39 -5 57.5t-17 25.5t-39 11q-6 19 -6 53q40 -3 121 -3q95 0 142 3q0 -32 -5 -53q-31 -3 -44.5 -10t-18.5 -25.5t-5 -58.5v-284q0 -94 35.5 -145t118.5 -51q27 0 54.5 9.5
t45.5 29.5q22 23 30.5 61t8.5 116v229q0 50 -5.5 76t-19.5 38t-43 15q-5 28 -5 53q36 -3 99 -3q59 0 98 3q0 -27 -6 -53q-24 -3 -37 -14.5t-18 -37t-5 -74.5v-229q0 -91 -12 -141zM489.5 762q-41.5 -36 -118.5 -36q-76 0 -116 34.5t-40 101.5q22 10 47 10q9 0 14 -1
q6 -33 34 -51.5t71 -18.5t69 18.5t28 51.5q6 1 18 1q20 0 35 -6q0 -68 -41.5 -104z" />
    <glyph glyph-name="ubreve" unicode="&#x16d;" horiz-adv-x="589" 
d="M548 23q-32 -2 -68 -10.5t-64 -21.5q-15 6 -22 17.5t-7 40.5q0 19 4 43q-11 -26 -33 -48q-25 -25 -56.5 -37t-73.5 -12q-74 0 -110.5 41.5t-36.5 139.5v134q0 29 -4 44t-18 23t-43 9q0 31 8 47q41 1 82.5 11t66.5 23q25 -10 25 -50v-218q0 -68 16.5 -99.5t55.5 -31.5
q48 0 78 42.5t30 122.5v82q0 28 -5.5 43.5t-21 23.5t-47.5 9q0 17 1.5 27.5t6.5 19.5q48 1 91 9.5t67 19.5q25 -10 25 -50v-264q0 -44 11.5 -59t49.5 -16q2 -35 -8 -55zM413 569.5q-47 -45.5 -133 -45.5q-85 0 -130.5 44.5t-45.5 126.5q27 13 58 11q7 -47 41.5 -74t87.5 -27
t85 27t34 74q32 2 50 -6q0 -85 -47 -130.5z" />
    <glyph glyph-name="Uring" unicode="&#x16e;" horiz-adv-x="681" 
d="M565 130q-12 -50 -46 -83q-56 -56 -166 -56q-94 0 -148.5 26.5t-78 79.5t-23.5 136v299q0 39 -5 57.5t-17 25.5t-39 11q-6 19 -6 53q40 -3 121 -3q95 0 142 3q0 -32 -5 -53q-31 -3 -44.5 -10t-18.5 -25.5t-5 -58.5v-284q0 -94 35.5 -145t118.5 -51q27 0 54.5 9.5
t45.5 29.5q22 23 30.5 61t8.5 116v229q0 50 -5.5 76t-19.5 38t-43 15q-5 28 -5 53q36 -3 99 -3q59 0 98 3q0 -27 -6 -53q-24 -3 -37 -14.5t-18 -37t-5 -74.5v-229q0 -91 -12 -141zM297 741q-29 21 -29 57q0 38 31 61t78 23q43 0 72 -19.5t29 -57.5q0 -37 -31 -61t-79 -24
q-42 0 -71 21zM404 766.5q11 11.5 11 30.5q0 20 -12 36.5t-34 16.5q-17 0 -27 -12.5t-10 -34.5t12 -35t33 -13q16 0 27 11.5z" />
    <glyph glyph-name="uring" unicode="&#x16f;" horiz-adv-x="589" 
d="M548 23q-32 -2 -68 -10.5t-64 -21.5q-15 6 -22 17.5t-7 40.5q0 19 4 43q-11 -26 -33 -48q-25 -25 -56.5 -37t-73.5 -12q-74 0 -110.5 41.5t-36.5 139.5v134q0 29 -4 44t-18 23t-43 9q0 31 8 47q41 1 82.5 11t66.5 23q25 -10 25 -50v-218q0 -68 16.5 -99.5t55.5 -31.5
q48 0 78 42.5t30 122.5v82q0 28 -5.5 43.5t-21 23.5t-47.5 9q0 17 1.5 27.5t6.5 19.5q48 1 91 9.5t67 19.5q25 -10 25 -50v-264q0 -44 11.5 -59t49.5 -16q2 -35 -8 -55zM202 548.5q-31 25.5 -31 66.5q0 43 33 71t82 28q45 0 76 -23t31 -68q0 -43 -33 -71.5t-83 -28.5
q-44 0 -75 25.5zM314 579.5q11 12.5 11 33.5q0 23 -12 42t-35 19q-17 0 -27.5 -14.5t-10.5 -39.5q0 -23 12.5 -38t34.5 -15q16 0 27 12.5z" />
    <glyph glyph-name="Uhungarumlaut" unicode="&#x170;" horiz-adv-x="681" 
d="M565 130q-12 -50 -46 -83q-56 -56 -166 -56q-94 0 -148.5 26.5t-78 79.5t-23.5 136v299q0 39 -5 57.5t-17 25.5t-39 11q-6 19 -6 53q40 -3 121 -3q95 0 142 3q0 -32 -5 -53q-31 -3 -44.5 -10t-18.5 -25.5t-5 -58.5v-284q0 -94 35.5 -145t118.5 -51q27 0 54.5 9.5
t45.5 29.5q22 23 30.5 61t8.5 116v229q0 50 -5.5 76t-19.5 38t-43 15q-5 28 -5 53q36 -3 99 -3q59 0 98 3q0 -27 -6 -53q-24 -3 -37 -14.5t-18 -37t-5 -74.5v-229q0 -91 -12 -141zM269.5 737.5q-14.5 4.5 -24.5 12.5q29 58 49 118q34 13 78 13q24 0 41 -7q-58 -62 -115 -141
q-14 0 -28.5 4.5zM440.5 737.5q-14.5 4.5 -24.5 12.5q29 58 49 118q34 13 78 13q23 0 41 -7q-64 -70 -115 -141q-14 0 -28.5 4.5z" />
    <glyph glyph-name="uhungarumlaut" unicode="&#x171;" horiz-adv-x="589" 
d="M548 23q-32 -2 -68 -10.5t-64 -21.5q-15 6 -22 17.5t-7 40.5q0 19 4 43q-11 -26 -33 -48q-25 -25 -56.5 -37t-73.5 -12q-74 0 -110.5 41.5t-36.5 139.5v134q0 29 -4 44t-18 23t-43 9q0 31 8 47q41 1 82.5 11t66.5 23q25 -10 25 -50v-218q0 -68 16.5 -99.5t55.5 -31.5
q48 0 78 42.5t30 122.5v82q0 28 -5.5 43.5t-21 23.5t-47.5 9q0 17 1.5 27.5t6.5 19.5q48 1 91 9.5t67 19.5q25 -10 25 -50v-264q0 -44 11.5 -59t49.5 -16q2 -35 -8 -55zM152 541q46 95 64 167q38 14 82 12q18 0 38 -6q-69 -82 -131 -183q-31 -2 -53 10zM323 541
q44 89 64 167q38 14 82 12q17 0 39 -6q-69 -80 -132 -183q-31 -2 -53 10z" />
    <glyph glyph-name="Uogonek" unicode="&#x172;" horiz-adv-x="681" 
d="M643 679q0 -27 -6 -53q-24 -3 -37 -14.5t-18 -37t-5 -74.5v-229q0 -91 -12 -141t-46 -83q-12 -12 -31 -24q-40 -28 -59 -56t-19 -60q0 -60 67 -60q20 0 40 7q5 -9 7.5 -24t1.5 -28q-55 -21 -90 -49q-7 -2 -20 -2q-41 0 -74 28t-33 85q0 37 18.5 68t65.5 61q-26 -2 -40 -2
q-94 0 -148.5 26.5t-78 79.5t-23.5 136v299q0 39 -5 57.5t-17 25.5t-39 11q-6 19 -6 53q40 -3 121 -3q95 0 142 3q0 -32 -5 -53q-31 -3 -44.5 -10t-18.5 -25.5t-5 -58.5v-284q0 -94 35.5 -145t118.5 -51q27 0 54.5 9.5t45.5 29.5q22 23 30.5 61t8.5 116v229q0 50 -5.5 76
t-19.5 38t-43 15q-5 28 -5 53q36 -3 99 -3q59 0 98 3z" />
    <glyph glyph-name="uogonek" unicode="&#x173;" horiz-adv-x="589" 
d="M539 -146q5 -9 8 -24t2 -28q-54 -20 -91 -49q-7 -2 -20 -2q-42 0 -74.5 27.5t-32.5 81.5q0 79 84 132q-15 6 -21.5 17.5t-6.5 39.5q0 19 4 43q-11 -26 -33 -48q-25 -25 -56.5 -37t-73.5 -12q-74 0 -110.5 41.5t-36.5 139.5v134q0 29 -4 44t-18 23t-43 9q0 31 8 47
q41 1 82.5 11t66.5 23q25 -10 25 -50v-218q0 -68 16.5 -99.5t55.5 -31.5q48 0 78 42.5t30 122.5v82q0 28 -5.5 43.5t-21 23.5t-47.5 9q0 17 1.5 27.5t6.5 19.5q48 1 91 9.5t67 19.5q25 -10 25 -50v-264q0 -44 11.5 -59t49.5 -16q2 -35 -8 -55q-56 -16 -85.5 -48.5
t-29.5 -71.5q0 -56 65 -56q21 0 41 7z" />
    <glyph glyph-name="Wcircumflex" unicode="&#x174;" horiz-adv-x="998" 
d="M977 679q0 -33 -7 -53q-18 -5 -30.5 -18t-24 -41t-29.5 -85l-150 -484q-20 -7 -59 -7q-82 233 -184 494l-165 -488q-24 -6 -60 -6q-92 304 -163 515q-19 58 -29.5 80.5t-20 29.5t-29.5 9q-5 21 -5 54q48 -3 128 -3q76 0 135 3q0 -30 -6 -53q-34 -2 -47.5 -10t-13.5 -27
q0 -21 17 -70q59 -177 101 -326l166 485q18 6 56 6q89 -233 183 -496l92 296q15 50 15 78q0 30 -15.5 44.5t-48.5 19.5q-8 21 -8 53q42 -3 103 -3q58 0 99 3zM376.5 743q-7.5 12 -10.5 24q87 56 143 110q20 5 50 5q56 -60 134 -120q-17 -24 -50 -33q-76 46 -121 66
q-85 -41 -126 -67q-12 3 -19.5 15z" />
    <glyph glyph-name="wcircumflex" unicode="&#x175;" horiz-adv-x="780" 
d="M767 461q0 -30 -9 -53q-23 -6 -36.5 -26.5t-33.5 -82.5l-101 -299q-19 -9 -65 -9q-14 33 -40 99q-49 117 -85 209l-125 -299q-18 -9 -63 -9q-80 232 -131 358q-11 28 -23.5 41t-33.5 18q-7 20 -7 52q66 -2 111 -2q69 0 126 3q0 -36 -7 -53q-25 -2 -35 -8.5t-10 -19.5
q0 -11 8 -35q33 -87 68 -206l125 318q16 6 51 6q64 -146 132 -325l49 157q12 39 12 62q0 24 -12.5 35.5t-37.5 15.5q-9 26 -9 53q38 -3 90 -3q55 0 92 3zM256.5 535q-6.5 13 -8.5 25q41 30 84 69t76 77q21 7 47 7q66 -85 150 -165q-18 -21 -46 -27l-25 18q-9 6 -46.5 31.5
t-67.5 41.5q-24 -12 -73 -44t-74 -52q-10 6 -16.5 19z" />
    <glyph glyph-name="Ycircumflex" unicode="&#x176;" horiz-adv-x="631" 
d="M610 678q0 -23 -5 -50q-26 -6 -47.5 -29t-44.5 -72l-132 -272v-82q0 -54 6 -77.5t22 -32.5t55 -13q7 -20 7 -53q-72 3 -151 3q-83 0 -157 -2q0 31 7 52q42 3 59 11t23 30t6 73v90l-159 314q-16 32 -31.5 45t-40.5 14q-6 20 -6 51q66 -2 122 -2q109 0 143 2q0 -29 -5 -50
q-23 -2 -33 -9.5t-10 -21.5q0 -17 17 -51q50 -100 104 -226q49 115 99 217q18 36 18 55q0 15 -11 23.5t-34 11.5q-8 26 -8 51q27 -2 99 -2q38 0 88 2zM199.5 743q-7.5 12 -10.5 24q87 56 143 110q20 5 50 5q56 -60 134 -120q-17 -24 -50 -33q-76 46 -121 66
q-85 -41 -126 -67q-12 3 -19.5 15z" />
    <glyph glyph-name="ycircumflex" unicode="&#x177;" horiz-adv-x="552" 
d="M538 461q0 -35 -8 -53q-26 -7 -40.5 -25t-36.5 -70l-147 -350q-37 -90 -65.5 -135t-54 -61t-60.5 -16q-28 0 -50 9t-35 23q-3 12 -3 30q0 29 7 52q41 -9 78 -9q33 0 56.5 12.5t41.5 41.5q6 10 35 69q-97 220 -146 322q-29 62 -46.5 81.5t-42.5 25.5q-7 20 -7 52
q76 -2 124 -2q61 0 143 2q0 -31 -8 -52q-31 -5 -44.5 -14t-13.5 -26q0 -19 20 -61q39 -76 80 -187l2 4l69 174q16 39 16 63q0 21 -13 31t-41 16q-8 20 -8 52q31 -2 99 -2q69 0 99 3zM149.5 535q-6.5 13 -8.5 25q41 30 84 69t76 77q21 7 47 7q66 -85 150 -165
q-18 -21 -46 -27l-25 18q-9 6 -46.5 31.5t-67.5 41.5q-24 -12 -73 -44t-74 -52q-10 6 -16.5 19z" />
    <glyph glyph-name="Ydieresis" unicode="&#x178;" horiz-adv-x="631" 
d="M610 678q0 -23 -5 -50q-26 -6 -47.5 -29t-44.5 -72l-132 -272v-82q0 -54 6 -77.5t22 -32.5t55 -13q7 -20 7 -53q-72 3 -151 3q-83 0 -157 -2q0 31 7 52q42 3 59 11t23 30t6 73v90l-159 314q-16 32 -31.5 45t-40.5 14q-6 20 -6 51q66 -2 122 -2q109 0 143 2q0 -29 -5 -50
q-23 -2 -33 -9.5t-10 -21.5q0 -17 17 -51q50 -100 104 -226q49 115 99 217q18 36 18 55q0 15 -11 23.5t-34 11.5q-8 26 -8 51q27 -2 99 -2q38 0 88 2zM199 746q-19 17 -19 42q0 28 16.5 47t49.5 19q34 0 51 -17.5t17 -46.5q0 -26 -19 -43.5t-47 -17.5q-30 0 -49 17z
M408.5 747q-18.5 18 -18.5 48q0 27 19 43t49 16q29 0 48.5 -17t19.5 -42q0 -28 -16 -47t-49 -19q-34 0 -52.5 18z" />
    <glyph glyph-name="Zacute" unicode="&#x179;" horiz-adv-x="619" 
d="M565 161q-8 -34 -14 -79.5t-7 -84.5q-93 3 -260 3q-153 0 -222 -3q-12 21 -12 43l17 28q85 141 171 286t157 272h-117q-43 0 -67.5 -10t-40.5 -38t-27 -84q-51 0 -71 11q10 35 15.5 82t5.5 91q86 -2 241 -2q132 0 200 2q12 -17 14 -43q-157 -289 -341 -584h121
q59 0 90.5 10t49 37t29.5 83q40 -3 68 -20zM278 741q33 63 57 130q32 8 61 8q27 0 53 -7q-52 -60 -114 -139q-34 0 -57 8z" />
    <glyph glyph-name="zacute" unicode="&#x17a;" horiz-adv-x="506" 
d="M468 18q-5 -9 -14 -14.5t-22 -5.5q-100 2 -186 2q-109 0 -181 -2q-7 10 -12 23t-5 26q54 73 132.5 184t119.5 174h-77q-34 0 -52 -8t-28.5 -29.5t-19.5 -65.5q-41 -2 -68 10q9 68 9 149q62 -3 191 -3q122 0 182 3q14 -17 14 -49q-48 -72 -123 -178t-132 -181h105
q36 0 54 9t26.5 32.5t12.5 71.5q39 0 66 -8q0 -92 8 -140zM216 541q46 95 64 167q38 14 82 12q18 0 38 -6q-69 -82 -131 -183q-31 -2 -53 10z" />
    <glyph glyph-name="Zdotaccent" unicode="&#x17b;" horiz-adv-x="619" 
d="M565 161q-8 -34 -14 -79.5t-7 -84.5q-93 3 -260 3q-153 0 -222 -3q-12 21 -12 43l17 28q85 141 171 286t157 272h-117q-43 0 -67.5 -10t-40.5 -38t-27 -84q-51 0 -71 11q10 35 15.5 82t5.5 91q86 -2 241 -2q132 0 200 2q12 -17 14 -43q-157 -289 -341 -584h121
q59 0 90.5 10t49 37t29.5 83q40 -3 68 -20zM268 737q-20 18 -20 46q0 31 21 50t52 19q34 0 53.5 -18.5t19.5 -49.5q0 -27 -21 -46t-54 -19q-31 0 -51 18z" />
    <glyph glyph-name="zdotaccent" unicode="&#x17c;" horiz-adv-x="506" 
d="M468 18q-5 -9 -14 -14.5t-22 -5.5q-100 2 -186 2q-109 0 -181 -2q-7 10 -12 23t-5 26q54 73 132.5 184t119.5 174h-77q-34 0 -52 -8t-28.5 -29.5t-19.5 -65.5q-41 -2 -68 10q9 68 9 149q62 -3 191 -3q122 0 182 3q14 -17 14 -49q-48 -72 -123 -178t-132 -181h105
q36 0 54 9t26.5 32.5t12.5 71.5q39 0 66 -8q0 -92 8 -140zM199 544q-20 18 -20 46q0 31 21 50t52 19q34 0 53.5 -18.5t19.5 -49.5q0 -27 -21 -46t-54 -19q-31 0 -51 18z" />
    <glyph glyph-name="Zcaron" unicode="&#x17d;" horiz-adv-x="619" 
d="M565 161q-8 -34 -14 -79.5t-7 -84.5q-93 3 -260 3q-153 0 -222 -3q-12 21 -12 43l17 28q85 141 171 286t157 272h-117q-43 0 -67.5 -10t-40.5 -38t-27 -84q-51 0 -71 11q10 35 15.5 82t5.5 91q86 -2 241 -2q132 0 200 2q12 -17 14 -43q-157 -289 -341 -584h121
q59 0 90.5 10t49 37t29.5 83q40 -3 68 -20zM154 850q17 25 51 32q77 -46 120 -65q85 41 126 67q12 -4 19.5 -15.5t10.5 -23.5q-87 -56 -143 -110q-24 -6 -50 -6q-52 59 -134 121z" />
    <glyph glyph-name="zcaron" unicode="&#x17e;" horiz-adv-x="506" 
d="M468 18q-5 -9 -14 -14.5t-22 -5.5q-100 2 -186 2q-109 0 -181 -2q-7 10 -12 23t-5 26q54 73 132.5 184t119.5 174h-77q-34 0 -52 -8t-28.5 -29.5t-19.5 -65.5q-41 -2 -68 10q9 68 9 149q62 -3 191 -3q122 0 182 3q14 -17 14 -49q-48 -72 -123 -178t-132 -181h105
q36 0 54 9t26.5 32.5t12.5 71.5q39 0 66 -8q0 -92 8 -140zM79 670q6 25 34 37q34 -24 73 -49.5t68 -39.5q24 12 70.5 43t63.5 46q13 -2 23.5 -11t16.5 -21q-41 -32 -83.5 -73t-73.5 -79q-23 -8 -48 -6q-71 87 -144 153z" />
    <glyph glyph-name="longs" unicode="&#x17f;" horiz-adv-x="349" 
d="M439 565q-27 -10 -74 -10q0 45 -17.5 72t-52.5 27t-50 -33t-15 -104v-356q0 -43 9 -66.5t29 -33t56 -11.5q7 -16 7 -53q-49 3 -141 3q-104 0 -152 -3q0 37 6 53q28 2 42 10t20 27t6 57v240q-41 10 -78 10q0 35 14 54h64v37q0 74 30.5 126t80.5 78t110 26q64 0 110 -27
q-6 -60 -4 -123z" />
    <glyph glyph-name="uni018E" unicode="&#x18e;" horiz-adv-x="614" 
d="M497 89q6 -21 20 -29t42 -10q6 -16 6 -53q-74 3 -273 3q-137 0 -227 -2q-9 89 -31 157q21 20 60 27q16 -49 33.5 -75t51 -40t92.5 -14h9q36 0 54.5 8.5t26 29.5t7.5 62v160h-46q-57 0 -79 -17t-26 -66q-20 -6 -57 -6q3 50 3 117q0 62 -3 111q35 0 59 -8q1 -46 23 -62.5
t80 -16.5h46v261h-81q-83 0 -117 -33.5t-40 -90.5q-38 0 -60 13q11 51 21 164q117 -3 278 -3q128 0 196 3q0 -35 -5 -53q-28 -2 -42.5 -10t-20.5 -27t-6 -56v-381q0 -42 6 -63z" />
    <glyph glyph-name="uni018F" unicode="&#x18f;" horiz-adv-x="652" 
d="M474 641q74 -44 108.5 -118.5t34.5 -168.5q0 -100 -37 -182t-108 -130.5t-168 -48.5q-133 0 -196 85.5t-73 228.5q6 25 21 40h429q-8 283 -215 283q-46 0 -72.5 -14.5t-40.5 -43.5t-21 -79q-6 -1 -17 -1q-29 0 -49 10q3 33 3 67q0 39 -4 70q41 22 100 34t118 12
q113 0 187 -44zM434 105.5q44 56.5 50 184.5q-137 5 -315 5q0 -117 38.5 -181.5t114.5 -64.5q68 0 112 56.5z" />
    <glyph glyph-name="florin" unicode="&#x192;" horiz-adv-x="397" 
d="M450.5 707.5q29.5 -6.5 43.5 -16.5q-10 -25 -17.5 -59t-8.5 -62q-9 -5 -26 -8t-32 -2q-2 52 -15 76t-41 24q-23 0 -38.5 -18t-29.5 -63t-30 -131h97q0 -35 -8 -51q-48 0 -100 -9q-13 -66 -33 -199q-4 -23 -6.5 -39.5t-4.5 -26.5q-22 -131 -52.5 -210.5t-82 -120
t-133.5 -40.5q-35 0 -64.5 6.5t-44.5 16.5q11 25 18 59t8 62q10 5 26.5 8t32.5 2q3 -100 52 -100q39 0 68 60.5t47 185.5l7 57q4 34 16 126t21 155q-40 8 -73 8q0 32 12 50h71l1 6q26 135 88 197.5t166 62.5q36 0 65.5 -6.5z" />
    <glyph glyph-name="uni019D" unicode="&#x19d;" horiz-adv-x="733" 
d="M695 679q0 -35 -5 -53q-24 -1 -36.5 -13.5t-18 -42.5t-5.5 -86v-487q-19 -6 -55 -6l-395 521v-457q0 -88 -22.5 -157t-65 -108t-101.5 -39q-54 0 -86 32q-3 10 -3 27q0 30 7 55q41 -9 75 -9q69 0 104 46.5t35 144.5v540l-7 9q-13 16 -25.5 22t-40.5 8q-5 21 -5 53
q32 -3 90 -3q49 0 80 3l357 -478v283q0 57 -6 86.5t-21.5 42t-45.5 13.5q-6 28 -6 53q44 -3 104 -3q59 0 98 3z" />
    <glyph glyph-name="Ohorn" unicode="&#x1a0;" horiz-adv-x="739" 
d="M670.5 504q33.5 -71 33.5 -160q0 -100 -42.5 -180.5t-118.5 -126.5t-174 -46q-100 0 -175.5 45t-117 124.5t-41.5 179.5q0 102 43.5 180t119.5 121.5t171 43.5h1q34 0 90 -6q54 -6 82 -6q44 0 67 17.5t23 72.5q0 12 -4 43t-9 42q29 9 62 9q9 0 21 -2q15 -15 24.5 -39
t9.5 -53q0 -61 -43 -101.5t-116 -41.5q60 -45 93.5 -116zM486 83q42 35 64.5 96.5t22.5 139.5q0 86 -28.5 157t-79.5 112.5t-115 41.5q-53 0 -95 -32.5t-65.5 -92.5t-23.5 -139q0 -85 26 -157.5t76 -116.5t119 -44q57 0 99 35z" />
    <glyph glyph-name="ohorn" unicode="&#x1a1;" horiz-adv-x="583" 
d="M558 447.5q-40 -42.5 -101 -48.5q59 -62 59 -168q0 -71 -30 -125t-84.5 -84.5t-126.5 -30.5q-111 0 -174.5 63.5t-63.5 172.5q0 71 31 125.5t85.5 84.5t123.5 30h1h1h1v0h9v0h1q38 -1 81 -11q38 -6 48 -6q37 0 55.5 29t18.5 82q0 41 -13 77q29 9 62 9q9 0 21 -2
q15 -14 25 -38.5t10 -53.5q0 -63 -40 -105.5zM364 92.5q27 45.5 27 120.5q0 61 -17 106t-45.5 69t-62.5 24q-50 0 -76.5 -44t-26.5 -116q0 -95 33 -150t90 -55q51 0 78 45.5z" />
    <glyph glyph-name="Uhorn" unicode="&#x1af;" horiz-adv-x="752" 
d="M754.5 816q9.5 -24 9.5 -52q0 -40 -18.5 -71t-48 -48t-60.5 -19q-24 -3 -37 -14.5t-18 -37t-5 -74.5v-229q0 -91 -12 -141t-46 -83q-56 -56 -166 -56q-94 0 -148.5 26.5t-78 79.5t-23.5 136v299q0 39 -5 57.5t-17 25.5t-39 11q-6 19 -6 53q40 -3 121 -3q95 0 142 3
q0 -32 -5 -53q-31 -3 -44.5 -10t-18.5 -25.5t-5 -58.5v-284q0 -94 35.5 -145t118.5 -51q27 0 54.5 9.5t45.5 29.5q22 23 30.5 61t8.5 116v229q0 50 -5.5 76t-19.5 38t-43 15q-5 28 -5 53q36 -3 99 -3q28 0 42 1q42 2 57 21t15 66q0 41 -12 84q29 9 62 9q9 0 21 -2
q15 -15 24.5 -39z" />
    <glyph glyph-name="uhorn" unicode="&#x1b0;" horiz-adv-x="626" 
d="M590.5 462.5q-36.5 -38.5 -95.5 -50.5v-259q0 -44 11.5 -59t49.5 -16q2 -35 -8 -55q-32 -2 -68 -10.5t-64 -21.5q-15 6 -22 17.5t-7 40.5q0 19 4 43q-11 -26 -33 -48q-25 -25 -56.5 -37t-73.5 -12q-74 0 -110.5 41.5t-36.5 139.5v134q0 29 -4 44t-18 23t-43 9q0 31 8 47
q41 1 82.5 11t66.5 23q25 -10 25 -50v-218q0 -68 16.5 -99.5t55.5 -31.5q48 0 78 42.5t30 122.5v82q0 28 -5.5 43.5t-21 23.5t-47.5 9q0 17 1.5 27.5t6.5 19.5q48 1 91 9.5t67 19.5q29 13 40.5 34.5t11.5 59.5q0 41 -13 77q29 9 62 9q9 0 21 -2q15 -14 25 -38.5t10 -51.5
q0 -54 -36.5 -92.5z" />
    <glyph glyph-name="uni01C4" unicode="&#x1c4;" horiz-adv-x="1352" 
d="M593.5 609.5q104.5 -68.5 104.5 -254.5q0 -148 -65.5 -226.5t-148.5 -103.5t-162 -25q-199 0 -273 -3q0 37 6 53q28 2 42.5 10t20.5 29.5t6 62.5v381q0 37 -6 56t-20.5 27t-42.5 10q-5 18 -5 53q53 -3 159 -3q36 0 54 1l60 1q166 0 270.5 -68.5zM503.5 116.5
q63.5 63.5 63.5 222.5q0 151 -72.5 221t-182.5 70q-38 0 -65 -10v-467q0 -41 7 -62t25.5 -29.5t54.5 -8.5q106 0 169.5 63.5zM1298 161q-8 -34 -14 -79.5t-7 -84.5q-93 3 -260 3q-153 0 -222 -3q-12 21 -12 43l17 28q85 141 171 286t157 272h-117q-43 0 -67.5 -10t-40.5 -38
t-27 -84q-51 0 -71 11q10 35 15.5 82t5.5 91q86 -2 241 -2q132 0 200 2q12 -17 14 -43q-157 -289 -341 -584h121q59 0 90.5 10t49 37t29.5 83q40 -3 68 -20zM887 850q17 25 51 32q77 -46 120 -65q85 41 126 67q12 -4 19.5 -15.5t10.5 -23.5q-87 -56 -143 -110q-24 -6 -50 -6
q-52 59 -134 121z" />
    <glyph glyph-name="uni01C5" unicode="&#x1c5;" horiz-adv-x="1239" 
d="M593.5 609.5q104.5 -68.5 104.5 -254.5q0 -148 -65.5 -226.5t-148.5 -103.5t-162 -25q-199 0 -273 -3q0 37 6 53q28 2 42.5 10t20.5 29.5t6 62.5v381q0 37 -6 56t-20.5 27t-42.5 10q-5 18 -5 53q53 -3 159 -3q36 0 54 1l60 1q166 0 270.5 -68.5zM503.5 116.5
q63.5 63.5 63.5 222.5q0 151 -72.5 221t-182.5 70q-38 0 -65 -10v-467q0 -41 7 -62t25.5 -29.5t54.5 -8.5q106 0 169.5 63.5zM1201 18q-5 -9 -14 -14.5t-22 -5.5q-100 2 -186 2q-109 0 -181 -2q-7 10 -12 23t-5 26q54 73 132.5 184t119.5 174h-77q-34 0 -52 -8t-28.5 -29.5
t-19.5 -65.5q-41 -2 -68 10q9 68 9 149q62 -3 191 -3q122 0 182 3q14 -17 14 -49q-48 -72 -123 -178t-132 -181h105q36 0 54 9t26.5 32.5t12.5 71.5q39 0 66 -8q0 -92 8 -140zM812 670q6 25 34 37q34 -24 73 -49.5t68 -39.5q24 12 70.5 43t63.5 46q13 -2 23.5 -11t16.5 -21
q-41 -32 -83.5 -73t-73.5 -79q-23 -8 -48 -6q-71 87 -144 153z" />
    <glyph glyph-name="uni01C6" unicode="&#x1c6;" horiz-adv-x="1094" 
d="M547 23q-32 -2 -68 -10.5t-64 -21.5q-15 6 -21.5 17.5t-6.5 40.5q0 24 7 52q-13 -24 -30 -46q-18 -24 -54.5 -44t-80.5 -20q-90 0 -141 53.5t-51 162.5q0 74 33 133t92.5 93t136.5 34q33 0 78 -12v110q0 26 -5.5 40.5t-21.5 22t-48 8.5q0 31 10 47q37 0 87.5 10.5
t69.5 23.5q26 -10 26 -47v-517q0 -30 4 -45.5t17 -22.5t39 -7q2 -35 -8 -55zM344 108q33 44 33 136v135q-17 17 -36.5 26t-44.5 9q-52 0 -93 -42.5t-41 -146.5q0 -52 14.5 -88.5t38 -54.5t49.5 -18q47 0 80 44zM1056 18q-5 -9 -14 -14.5t-22 -5.5q-100 2 -186 2
q-109 0 -181 -2q-7 10 -12 23t-5 26q54 73 132.5 184t119.5 174h-77q-34 0 -52 -8t-28.5 -29.5t-19.5 -65.5q-41 -2 -68 10q9 68 9 149q62 -3 191 -3q122 0 182 3q14 -17 14 -49q-48 -72 -123 -178t-132 -181h105q36 0 54 9t26.5 32.5t12.5 71.5q39 0 66 -8q0 -92 8 -140z
M667 670q6 25 34 37q34 -24 73 -49.5t68 -39.5q24 12 70.5 43t63.5 46q13 -2 23.5 -11t16.5 -21q-41 -32 -83.5 -73t-73.5 -79q-23 -8 -48 -6q-71 87 -144 153z" />
    <glyph glyph-name="uni01C7" unicode="&#x1c7;" horiz-adv-x="930" 
d="M422 65.5q30 12.5 48.5 39.5t34.5 77q40 -7 60 -27q-20 -60 -31 -157q-88 2 -212 2q-199 0 -273 -3q0 37 6 53q28 2 42.5 10t20.5 29.5t6 62.5v381q0 37 -6 56t-20.5 27t-42.5 10q-5 18 -5 53q67 -3 135 -3q76 0 136 3q0 -36 -6 -53q-28 -2 -42 -10t-20 -27.5t-6 -57.5
v-378q0 -41 7 -62t25.5 -29.5t54.5 -8.5h9q49 0 79 12.5zM802.5 -38.5q-15.5 -64.5 -61.5 -115.5t-137 -95q-20 13 -23 39q59 47 86 102.5t27 149.5v490q0 38 -5.5 57t-19.5 27t-42 10q-7 20 -7 53q50 -3 136 -3q91 0 136 3q0 -36 -6 -53q-28 -2 -42 -10t-20 -27.5t-6 -56.5
v-404q0 -102 -15.5 -166.5z" />
    <glyph glyph-name="uni01C8" unicode="&#x1c8;" horiz-adv-x="880" 
d="M689 580.5q-20 18.5 -20 45.5q0 31 21 50t52 19q34 0 53.5 -18t19.5 -50q0 -27 -21 -46t-54 -19q-31 0 -51 18.5zM422 65.5q30 12.5 48.5 39.5t34.5 77q40 -7 60 -27q-20 -60 -31 -157q-88 2 -212 2q-199 0 -273 -3q0 37 6 53q28 2 42.5 10t20.5 29.5t6 62.5v381
q0 37 -6 56t-20.5 27t-42.5 10q-5 18 -5 53q67 -3 135 -3q76 0 136 3q0 -36 -6 -53q-28 -2 -42 -10t-20 -27.5t-6 -57.5v-378q0 -41 7 -62t25.5 -29.5t54.5 -8.5h9q49 0 79 12.5zM606 -233q-8 11 -9 25q54 60 74 109.5t20 122.5v291q0 26 -5 40.5t-21 22t-48 8.5q0 31 10 47
q37 0 87 10.5t69 23.5q26 -10 26 -47v-373q0 -104 -54 -179.5t-129 -116.5q-12 5 -20 16z" />
    <glyph glyph-name="uni01C9" unicode="&#x1c9;" horiz-adv-x="618" 
d="M38 50q40 1 54 19t14 68v431q0 36 -15 51.5t-60 16.5q0 31 10 47q37 0 87.5 10.5t69.5 23.5q25 -10 25 -47v-533q0 -49 13.5 -67.5t47.5 -19.5q6 -19 6 -53q-48 3 -128 3q-85 0 -130 -3q0 35 6 53zM427 580.5q-20 18.5 -20 45.5q0 31 21 50t52 19q34 0 53.5 -18t19.5 -50
q0 -27 -21 -46t-54 -19q-31 0 -51 18.5zM344 -233q-8 11 -9 25q54 60 74 109.5t20 122.5v291q0 26 -5 40.5t-21 22t-48 8.5q0 31 10 47q37 0 87 10.5t69 23.5q26 -10 26 -47v-373q0 -104 -54 -179.5t-129 -116.5q-12 5 -20 16z" />
    <glyph glyph-name="uni01CA" unicode="&#x1ca;" horiz-adv-x="1080" 
d="M695 679q0 -35 -5 -53q-24 -1 -36.5 -13.5t-18 -42.5t-5.5 -86v-484q-22 -7 -57 -7l-393 519v-316q0 -58 6 -88.5t21.5 -43.5t44.5 -14q6 -18 6 -53q-45 3 -105 3q-72 0 -108 -3q0 34 5 53q29 1 44.5 14t22 43.5t6.5 88.5v391l-7 9q-13 16 -25.5 22t-40.5 8q-5 21 -5 53
q32 -3 90 -3q49 0 80 3l357 -478v283q0 57 -6 86.5t-21.5 42t-45.5 13.5q-6 28 -6 53q44 -3 104 -3q59 0 98 3zM952.5 -38.5q-15.5 -64.5 -61.5 -115.5t-137 -95q-20 13 -23 39q59 47 86 102.5t27 149.5v490q0 38 -5.5 57t-19.5 27t-42 10q-7 20 -7 53q50 -3 136 -3
q91 0 136 3q0 -36 -6 -53q-28 -2 -42 -10t-20 -27.5t-6 -56.5v-404q0 -102 -15.5 -166.5z" />
    <glyph glyph-name="uni01CB" unicode="&#x1cb;" horiz-adv-x="1030" 
d="M839 580.5q-20 18.5 -20 45.5q0 31 21 50t52 19q34 0 53.5 -18t19.5 -50q0 -27 -21 -46t-54 -19q-31 0 -51 18.5zM597 676q59 0 98 3q0 -35 -5 -53q-24 -1 -36.5 -13.5t-18 -42.5t-5.5 -86v-484q-22 -7 -57 -7l-393 519v-316q0 -58 6 -88.5t21.5 -43.5t44.5 -14
q6 -18 6 -53q-45 3 -105 3q-72 0 -108 -3q0 34 5 53q29 1 44.5 14t22 43.5t6.5 88.5v391l-7 9q-13 16 -25.5 22t-40.5 8q-5 21 -5 53q32 -3 90 -3q49 0 80 3l357 -478v283q0 57 -6 86.5t-21.5 42t-45.5 13.5q-6 28 -6 53q44 -3 104 -3zM959 420v-373q0 -104 -54 -179.5
t-129 -116.5q-12 5 -20 16t-9 25q54 60 74 109.5t20 122.5v291q0 26 -5 40.5t-21 22t-48 8.5q0 31 10 47q37 0 87 10.5t69 23.5q26 -10 26 -47z" />
    <glyph glyph-name="uni01CC" unicode="&#x1cc;" horiz-adv-x="927" 
d="M596 -3q-45 3 -118 3q-38 0 -131 -3q0 36 7 53q33 0 48 20t15 70v129q0 63 -22 89.5t-63 26.5q-27 0 -51 -18t-39 -54.5t-15 -90.5v-85q0 -50 14 -68.5t49 -18.5q7 -19 7 -53q-87 3 -128 3q-89 0 -133 -3q0 37 6 53q39 0 53.5 18.5t14.5 68.5v173q0 28 -5 43.5t-21 23.5
t-48 9q0 31 10 47q42 1 87 11.5t69 22.5q25 -10 25 -50q0 -28 -8 -59q1 3 7 14.5t15 22.5q20 27 58 47t84 20q66 0 109 -39.5t43 -123.5v-162q0 -50 12.5 -68.5t41.5 -18.5q7 -21 7 -53zM736 580.5q-20 18.5 -20 45.5q0 31 21 50t52 19q34 0 53.5 -18t19.5 -50
q0 -27 -21 -46t-54 -19q-31 0 -51 18.5zM653 -233q-8 11 -9 25q54 60 74 109.5t20 122.5v291q0 26 -5 40.5t-21 22t-48 8.5q0 31 10 47q37 0 87 10.5t69 23.5q26 -10 26 -47v-373q0 -104 -54 -179.5t-129 -116.5q-12 5 -20 16z" />
    <glyph glyph-name="uni01CF" unicode="&#x1cf;" horiz-adv-x="369" 
d="M42 846q9 10 24.5 17.5t30.5 9.5q44 -38 100 -74q49 33 92 76q29 -12 38 -39q-28 -25 -105 -104l-15 -15q-27 -8 -50 -8q-36 47 -115 137zM117 589q-6 19 -20 27t-42 10q-6 21 -6 53q54 -3 137 -3q74 0 134 3q0 -15 -1 -29t-5 -24q-28 -2 -42 -10t-20 -27t-6 -56v-389
q0 -38 6 -57t20 -27t42 -10q6 -16 6 -53q-55 3 -131 3q-84 0 -140 -3q0 34 6 53q28 2 42 10t20 27t6 57v389q0 37 -6 56z" />
    <glyph glyph-name="uni01D0" unicode="&#x1d0;" horiz-adv-x="329" 
d="M303 670q-46 -48 -121 -147q-28 -6 -49 -6q-48 74 -115 166q9 9 24.5 16t30.5 9q59 -65 100 -95q53 49 92 99q29 -13 38 -42zM42 50q40 1 54 19t14 68v178q0 26 -5.5 40.5t-21.5 22t-48 8.5q0 31 10 47q37 0 87.5 10.5t69.5 23.5q25 -10 25 -47v-283q0 -49 13.5 -67.5
t47.5 -19.5q6 -19 6 -53q-48 3 -128 3q-85 0 -130 -3q0 35 6 53z" />
    <glyph glyph-name="uni01DD" unicode="&#x1dd;" horiz-adv-x="494" 
d="M399 401q58 -66 58 -171q0 -68 -27 -122t-77 -85.5t-116 -31.5q-98 0 -146 57t-53 153q6 25 20 41q154 0 274 6q-7 69 -40.5 111t-100.5 42q-34 0 -67 -13.5t-57 -38.5q-9 5 -16.5 17t-8.5 24q36 40 82 58.5t105 18.5q112 0 170 -66zM306 80.5q25 34.5 28 109.5h-175
q0 -67 22 -105.5t61 -38.5t64 34.5z" />
    <glyph glyph-name="Gcaron" unicode="&#x1e6;" horiz-adv-x="722" 
d="M194 34.5q-76 43.5 -117.5 123.5t-41.5 188q0 107 47.5 183.5t127 116t175.5 39.5q67 0 129.5 -13t109.5 -35q-11 -57 -11 -155q-24 -11 -66 -11q-4 92 -44 127.5t-114 35.5q-73 0 -123 -36.5t-74 -97t-24 -132.5q0 -91 25.5 -163.5t75.5 -114t120 -41.5q27 0 46 2.5
t37 9.5t25.5 22.5t7.5 51.5v46q0 43 -6 61t-22 24.5t-54 7.5q-6 20 -6 55q29 -3 127 -3q97 0 124 2q0 -35 -6 -54q-20 -1 -29 -7t-12 -23.5t-3 -58.5v-39q0 -28 2.5 -45.5t11.5 -33.5q-47 -34 -114.5 -55t-146.5 -21q-101 0 -177 43.5zM213 850q17 25 51 32q77 -46 120 -65
q85 41 126 67q12 -4 19.5 -15.5t10.5 -23.5q-87 -56 -143 -110q-24 -6 -50 -6q-52 59 -134 121z" />
    <glyph glyph-name="gcaron" unicode="&#x1e7;" horiz-adv-x="531" 
d="M445.5 46q43.5 -25 43.5 -90q0 -51 -34.5 -98.5t-96.5 -77t-140 -29.5q-97 0 -140 33t-43 96q0 35 19 62t55 42q-24 11 -35 30t-11 49q0 58 56 109q-69 43 -69 130q0 74 50.5 119.5t142.5 45.5q40 0 70 -9h177q8 -25 8 -70q-43 13 -96 18q22 -23 33.5 -51t11.5 -53
q0 -71 -52 -116.5t-148 -45.5q-40 0 -73 9q-21 -21 -21 -39q0 -17 13.5 -25t43.5 -10.5t94 -2.5q98 -1 141.5 -26zM187.5 389q-18.5 -29 -18.5 -74q0 -59 24 -91t67 -32q32 0 50.5 26.5t18.5 75.5q0 55 -24 89.5t-65 34.5q-34 0 -52.5 -29zM346.5 -161.5
q37.5 27.5 37.5 68.5q0 23 -11.5 35t-42 17.5t-89.5 5.5q-40 0 -77 5q-15 -15 -21 -30.5t-6 -35.5q0 -48 25 -70.5t84 -22.5q63 0 100.5 27.5zM71 670q6 25 34 37q34 -24 73 -49.5t68 -39.5q24 12 70.5 43t63.5 46q13 -2 23.5 -11t16.5 -21q-41 -32 -83.5 -73t-73.5 -79
q-23 -8 -48 -6q-71 87 -144 153z" />
    <glyph glyph-name="uni01EA" unicode="&#x1ea;" horiz-adv-x="739" 
d="M654 150q-50 -85 -137 -127h-1q0 -1 -1 -1q-45 -22 -67 -52t-22 -63q0 -34 17 -48.5t45 -14.5q26 0 44 7q6 -9 9 -23.5t1 -28.5q-54 -20 -91 -49q-7 -2 -20 -2q-25 0 -50 12t-41 36t-16 57q0 86 79 140q-22 -2 -34 -2q-100 0 -175.5 45t-117 124.5t-41.5 179.5
q0 102 43.5 180t119.5 121.5t171 43.5q97 0 173.5 -43t119 -120t42.5 -178q0 -109 -50 -194zM486 83q42 35 64.5 96.5t22.5 139.5q0 86 -28.5 157t-79.5 112.5t-115 41.5q-53 0 -95 -32.5t-65.5 -92.5t-23.5 -139q0 -85 26 -157.5t76 -116.5t119 -44q57 0 99 35z" />
    <glyph glyph-name="uni01EB" unicode="&#x1eb;" horiz-adv-x="553" 
d="M269 -45.5q-25 -27.5 -25 -56.5q0 -24 17.5 -37.5t49.5 -13.5q20 0 40 7q5 -9 7.5 -24t1.5 -28q-52 -20 -90 -49q-7 -2 -20 -2q-22 0 -47 10t-42.5 32.5t-17.5 58.5q0 41 25.5 75.5t81.5 64.5q-100 7 -156.5 70t-56.5 165q0 71 31 125.5t85.5 84.5t123.5 30
q113 0 176 -64.5t63 -171.5q0 -88 -46 -150t-126 -82q-50 -17 -75 -44.5zM196 102q33 -55 90 -55q51 0 78 45.5t27 120.5q0 61 -17 106t-45.5 69t-62.5 24q-50 0 -76.5 -44t-26.5 -116q0 -95 33 -150z" />
    <glyph glyph-name="uni01F1" unicode="&#x1f1;" horiz-adv-x="1352" 
d="M593.5 609.5q104.5 -68.5 104.5 -254.5q0 -148 -65.5 -226.5t-148.5 -103.5t-162 -25q-199 0 -273 -3q0 37 6 53q28 2 42.5 10t20.5 29.5t6 62.5v381q0 37 -6 56t-20.5 27t-42.5 10q-5 18 -5 53q53 -3 159 -3q36 0 54 1l60 1q166 0 270.5 -68.5zM503.5 116.5
q63.5 63.5 63.5 222.5q0 151 -72.5 221t-182.5 70q-38 0 -65 -10v-467q0 -41 7 -62t25.5 -29.5t54.5 -8.5q106 0 169.5 63.5zM1298 161q-8 -34 -14 -79.5t-7 -84.5q-93 3 -260 3q-153 0 -222 -3q-12 21 -12 43l17 28q85 141 171 286t157 272h-117q-43 0 -67.5 -10t-40.5 -38
t-27 -84q-51 0 -71 11q10 35 15.5 82t5.5 91q86 -2 241 -2q132 0 200 2q12 -17 14 -43q-157 -289 -341 -584h121q59 0 90.5 10t49 37t29.5 83q40 -3 68 -20z" />
    <glyph glyph-name="uni01F2" unicode="&#x1f2;" horiz-adv-x="1239" 
d="M593.5 609.5q104.5 -68.5 104.5 -254.5q0 -148 -65.5 -226.5t-148.5 -103.5t-162 -25q-199 0 -273 -3q0 37 6 53q28 2 42.5 10t20.5 29.5t6 62.5v381q0 37 -6 56t-20.5 27t-42.5 10q-5 18 -5 53q53 -3 159 -3q36 0 54 1l60 1q166 0 270.5 -68.5zM503.5 116.5
q63.5 63.5 63.5 222.5q0 151 -72.5 221t-182.5 70q-38 0 -65 -10v-467q0 -41 7 -62t25.5 -29.5t54.5 -8.5q106 0 169.5 63.5zM1201 18q-5 -9 -14 -14.5t-22 -5.5q-100 2 -186 2q-109 0 -181 -2q-7 10 -12 23t-5 26q54 73 132.5 184t119.5 174h-77q-34 0 -52 -8t-28.5 -29.5
t-19.5 -65.5q-41 -2 -68 10q9 68 9 149q62 -3 191 -3q122 0 182 3q14 -17 14 -49q-48 -72 -123 -178t-132 -181h105q36 0 54 9t26.5 32.5t12.5 71.5q39 0 66 -8q0 -92 8 -140z" />
    <glyph glyph-name="uni01F3" unicode="&#x1f3;" horiz-adv-x="1094" 
d="M547 23q-32 -2 -68 -10.5t-64 -21.5q-15 6 -21.5 17.5t-6.5 40.5q0 24 7 52q-13 -24 -30 -46q-18 -24 -54.5 -44t-80.5 -20q-90 0 -141 53.5t-51 162.5q0 74 33 133t92.5 93t136.5 34q33 0 78 -12v110q0 26 -5.5 40.5t-21.5 22t-48 8.5q0 31 10 47q37 0 87.5 10.5
t69.5 23.5q26 -10 26 -47v-517q0 -30 4 -45.5t17 -22.5t39 -7q2 -35 -8 -55zM344 108q33 44 33 136v135q-17 17 -36.5 26t-44.5 9q-52 0 -93 -42.5t-41 -146.5q0 -52 14.5 -88.5t38 -54.5t49.5 -18q47 0 80 44zM1056 18q-5 -9 -14 -14.5t-22 -5.5q-100 2 -186 2
q-109 0 -181 -2q-7 10 -12 23t-5 26q54 73 132.5 184t119.5 174h-77q-34 0 -52 -8t-28.5 -29.5t-19.5 -65.5q-41 -2 -68 10q9 68 9 149q62 -3 191 -3q122 0 182 3q14 -17 14 -49q-48 -72 -123 -178t-132 -181h105q36 0 54 9t26.5 32.5t12.5 71.5q39 0 66 -8q0 -92 8 -140z
" />
    <glyph glyph-name="Aringacute" unicode="&#x1fa;" horiz-adv-x="708" 
d="M687 -3q-39 3 -126 3q-93 0 -131 -3q0 34 8 53q25 3 36.5 10t11.5 21q0 15 -14 46l-33 78q-155 0 -254 -5l-20 -52q-13 -33 -13 -55q0 -20 12 -30.5t37 -12.5q8 -24 8 -53q-34 3 -102 3q-29 0 -86 -3q0 31 8 52q26 5 40.5 25.5t39.5 80.5l208 522q21 5 49 5l234 -530
q19 -42 31 -62.5t22.5 -29t26.5 -10.5q7 -24 7 -53zM417 256l-65 152q-27 60 -46 119q-18 -58 -41 -119l-58 -152h210zM266 741q-29 21 -29 57q0 38 31 61t78 23q43 0 72 -19.5t29 -57.5q0 -37 -31 -61t-79 -24q-42 0 -71 21zM373 766.5q11 11.5 11 30.5q0 20 -12 36.5
t-34 16.5q-17 0 -27 -12.5t-10 -34.5t12 -35t33 -13q16 0 27 11.5zM298 947q33 63 57 130q32 8 61 8q27 0 53 -7q-52 -60 -114 -139q-34 0 -57 8z" />
    <glyph glyph-name="aringacute" unicode="&#x1fb;" horiz-adv-x="523" 
d="M491 64q0 -22 -8 -41q-31 -2 -66 -10.5t-63 -21.5q-14 5 -21 19t-7 39q0 15 3 33q-14 -34 -39 -54q-40 -35 -111 -35q-65 0 -100.5 28.5t-35.5 80.5q0 85 78 120.5t191 51.5q0 52 -4 75t-17 39q-23 27 -59 27q-42 0 -61.5 -34t-22.5 -80q-47 0 -68 9q2 24 2 38
q0 43 -7 77q41 19 91 30.5t94 11.5q84 0 127 -41q23 -24 33 -63t10 -107v-98q0 -32 4.5 -48t17 -23t38.5 -9zM312 226q-71 -10 -109 -30.5t-38 -69.5q0 -31 15 -47t38 -16q22 0 44 14.5t36 44t14 72.5v32zM172 523q-29 21 -29 57q0 38 31 61t78 23q43 0 72 -19.5t29 -57.5
q0 -37 -31 -61t-79 -24q-42 0 -71 21zM279 548.5q11 11.5 11 30.5q0 20 -12 36.5t-34 16.5q-17 0 -27 -12.5t-10 -34.5t12 -35t33 -13q16 0 27 11.5zM204 729q33 63 57 130q32 8 61 8q27 0 53 -7q-52 -60 -114 -139q-34 0 -57 8z" />
    <glyph glyph-name="AEacute" unicode="&#x1fc;" horiz-adv-x="936" 
d="M871 -2q-128 2 -260 2q-122 0 -222 -2q0 36 7 52q28 3 41 11.5t18 28.5t5 62v142q-123 -2 -183 -7q-28 -48 -72 -128q-25 -47 -25 -71q0 -18 11.5 -27t33.5 -13q8 -19 8 -51q-46 3 -108 3q-74 0 -104 -3q0 35 8 52q29 4 50 23.5t55 79.5l228 394q16 28 16 45q0 29 -56 35
q-8 19 -8 52q104 -2 173 -2h62q173 0 297 2q2 -40 8 -86t13 -77q-8 -6 -25.5 -9.5t-35.5 -3.5q-6 57 -40 90.5t-116 33.5h-66v-282h40q53 0 72.5 18t20.5 61q30 9 59 9q-2 -48 -2 -114q0 -67 2 -115q-41 0 -57 6q-3 31 -10.5 49t-28.5 27.5t-62 9.5h-34v-142q0 -43 8 -64.5
t23 -28.5t41 -7h24q53 0 82.5 13t46 39.5t34.5 76.5q43 -11 59 -27q-20 -60 -31 -157zM460 344v196q0 42 4 78q-12 -27 -38 -72l-116 -202h150zM482 741q33 63 57 130q32 8 61 8q27 0 53 -7q-52 -60 -114 -139q-34 0 -57 8z" />
    <glyph glyph-name="aeacute" unicode="&#x1fd;" horiz-adv-x="715" 
d="M665.5 92q8.5 -12 9.5 -23q-62 -75 -177 -75q-59 0 -102 26.5t-68 70.5q-14 -43 -56.5 -70t-103.5 -27q-60 0 -92.5 28t-32.5 81q0 82 73 118.5t180 48.5v45q0 48 -21 73t-54 25q-38 0 -54.5 -30t-22.5 -82q-18 0 -38.5 2.5t-30.5 7.5q1 10 1 34q0 47 -6 81
q47 20 88.5 30.5t89.5 10.5q80 0 120 -58q26 30 62.5 44t74.5 14q57 0 95 -29.5t56 -73t20 -88.5q-5 -26 -22 -44q-134 -2 -240 -10q1 -66 29.5 -115t86.5 -49q72 0 119 53q8 -7 16.5 -19zM431.5 378.5q-17.5 -34.5 -17.5 -94.5v-10q49 4 150 8q0 54 -19 92.5t-61 38.5
q-35 0 -52.5 -34.5zM272.5 96.5q23.5 37.5 23.5 115.5v3v3q-74 -7 -108 -29t-34 -66q0 -34 17.5 -49t40.5 -15q37 0 60.5 37.5zM332 541q46 95 64 167q38 14 82 12q18 0 38 -6q-69 -82 -131 -183q-31 -2 -53 10z" />
    <glyph glyph-name="Oslashacute" unicode="&#x1fe;" horiz-adv-x="739" 
d="M678.5 484q25.5 -64 25.5 -140q0 -100 -42.5 -180.5t-118.5 -126.5t-174 -46q-110 0 -194 57l-60 -76q-19 0 -35.5 6t-24.5 16l75 92q-46 48 -70.5 112.5t-24.5 141.5q0 102 43.5 180t119.5 121.5t171 43.5q107 0 189 -52l52 68q44 0 66 -18l-69 -89q46 -46 71.5 -110z
M255 597.5q-42 -32.5 -65.5 -92.5t-23.5 -139q0 -108 39 -189l292 380q-62 73 -147 73q-53 0 -95 -32.5zM486 83q42 35 64.5 96.5t22.5 139.5q0 104 -41 184l-293 -382q58 -73 148 -73q57 0 99 35zM326 741q33 63 57 130q32 8 61 8q27 0 53 -7q-52 -60 -114 -139
q-34 0 -57 8z" />
    <glyph glyph-name="oslashacute" unicode="&#x1ff;" horiz-adv-x="553" 
d="M461 394q55 -63 55 -163q0 -71 -30 -125t-84.5 -84.5t-126.5 -30.5q-84 0 -141 37l-52 -60q-20 0 -37.5 4.5t-25.5 11.5l72 81q-54 63 -54 162q0 71 31 125.5t85.5 84.5t123.5 30q81 0 138 -34l50 56q19 0 37 -4.5t29 -11.5zM189.5 368q-26.5 -44 -26.5 -116
q0 -53 11 -95l177 207q-36 48 -85 48q-50 0 -76.5 -44zM364 92.5q27 45.5 27 120.5q0 50 -13 94l-180 -209q32 -51 88 -51q51 0 78 45.5zM236 541q46 95 64 167q38 14 82 12q18 0 38 -6q-69 -82 -131 -183q-31 -2 -53 10z" />
    <glyph glyph-name="uni0200" unicode="&#x200;" horiz-adv-x="708" 
d="M687 -3q-39 3 -126 3q-93 0 -131 -3q0 34 8 53q25 3 36.5 10t11.5 21q0 15 -14 46l-33 78q-155 0 -254 -5l-20 -52q-13 -33 -13 -55q0 -20 12 -30.5t37 -12.5q8 -24 8 -53q-34 3 -102 3q-29 0 -86 -3q0 31 8 52q26 5 40.5 25.5t39.5 80.5l208 522q21 5 49 5l234 -530
q19 -42 31 -62.5t22.5 -29t26.5 -10.5q7 -24 7 -53zM417 256l-65 152q-27 60 -46 119q-18 -58 -41 -119l-58 -152h210zM150 846q19 10 47.5 14t57.5 2q28 -71 63 -133q-22 -9 -57 -9q-59 74 -111 126zM317 847q19 9 46 13t56 2q28 -71 63 -133q-22 -9 -57 -9
q-61 79 -108 127z" />
    <glyph glyph-name="uni0201" unicode="&#x201;" horiz-adv-x="523" 
d="M491 64q0 -22 -8 -41q-31 -2 -66 -10.5t-63 -21.5q-14 5 -21 19t-7 39q0 15 3 33q-14 -34 -39 -54q-40 -35 -111 -35q-65 0 -100.5 28.5t-35.5 80.5q0 85 78 120.5t191 51.5q0 52 -4 75t-17 39q-23 27 -59 27q-42 0 -61.5 -34t-22.5 -80q-47 0 -68 9q2 24 2 38
q0 43 -7 77q41 19 91 30.5t94 11.5q84 0 127 -41q23 -24 33 -63t10 -107v-98q0 -32 4.5 -48t17 -23t38.5 -9zM312 226q-71 -10 -109 -30.5t-38 -69.5q0 -31 15 -47t38 -16q22 0 44 14.5t36 44t14 72.5v32zM42 702q33 13 78 13q12 0 36 -2q27 -91 71 -172q-11 -5 -24 -6.5
t-33 -0.5q-64 101 -128 168zM215 702q33 13 77 13q13 0 35 -2q31 -98 71 -172q-11 -5 -24 -6.5t-33 -0.5q-65 103 -126 168z" />
    <glyph glyph-name="uni0202" unicode="&#x202;" horiz-adv-x="708" 
d="M687 -3q-39 3 -126 3q-93 0 -131 -3q0 34 8 53q25 3 36.5 10t11.5 21q0 15 -14 46l-33 78q-155 0 -254 -5l-20 -52q-13 -33 -13 -55q0 -20 12 -30.5t37 -12.5q8 -24 8 -53q-34 3 -102 3q-29 0 -86 -3q0 31 8 52q26 5 40.5 25.5t39.5 80.5l208 522q21 5 49 5l234 -530
q19 -42 31 -62.5t22.5 -29t26.5 -10.5q7 -24 7 -53zM417 256l-65 152q-27 60 -46 119q-18 -58 -41 -119l-58 -152h210zM225.5 837q41.5 36 118.5 36q76 0 116 -34.5t40 -101.5q-22 -10 -47 -10q-9 0 -14 1q-6 33 -34 51.5t-71 18.5t-69 -18.5t-28 -51.5q-6 -1 -18 -1
q-20 0 -35 6q0 68 41.5 104z" />
    <glyph glyph-name="uni0203" unicode="&#x203;" horiz-adv-x="523" 
d="M491 64q0 -22 -8 -41q-31 -2 -66 -10.5t-63 -21.5q-14 5 -21 19t-7 39q0 15 3 33q-14 -34 -39 -54q-40 -35 -111 -35q-65 0 -100.5 28.5t-35.5 80.5q0 85 78 120.5t191 51.5q0 52 -4 75t-17 39q-23 27 -59 27q-42 0 -61.5 -34t-22.5 -80q-47 0 -68 9q2 24 2 38
q0 43 -7 77q41 19 91 30.5t94 11.5q84 0 127 -41q23 -24 33 -63t10 -107v-98q0 -32 4.5 -48t17 -23t38.5 -9zM312 226q-71 -10 -109 -30.5t-38 -69.5q0 -31 15 -47t38 -16q22 0 44 14.5t36 44t14 72.5v32zM117 661.5q47 45.5 133 45.5q85 0 130.5 -44.5t45.5 -126.5
q-27 -13 -58 -11q-7 47 -41.5 74t-87.5 27t-85 -27t-34 -74q-32 -2 -50 6q0 85 47 130.5z" />
    <glyph glyph-name="uni0204" unicode="&#x204;" horiz-adv-x="614" 
d="M580 155q-22 -68 -31 -157q-90 2 -227 2q-199 0 -273 -3q0 37 6 53q28 2 42 10t20 29t6 63v381q0 37 -6 56t-20.5 27t-42.5 10q-5 18 -5 53q68 -3 196 -3q161 0 278 3q10 -113 21 -164q-22 -13 -60 -13q-6 57 -40 90.5t-117 33.5h-81v-261h46q58 0 80 16.5t23 62.5
q24 8 59 8q-3 -49 -3 -111q0 -67 3 -117q-37 0 -57 6q-4 49 -26 66t-79 17h-46v-160q0 -41 7.5 -62t26 -29.5t54.5 -8.5h9q59 0 92.5 14t51 40t33.5 75q39 -7 60 -27zM103 846q19 10 47.5 14t57.5 2q28 -71 63 -133q-22 -9 -57 -9q-59 74 -111 126zM270 847q19 9 46 13t56 2
q28 -71 63 -133q-22 -9 -57 -9q-61 79 -108 127z" />
    <glyph glyph-name="uni0205" unicode="&#x205;" horiz-adv-x="494" 
d="M443.5 92q7.5 -12 8.5 -24q-36 -40 -82 -58.5t-105 -18.5q-112 0 -170 66t-58 171q0 68 27 122t77 85.5t116 31.5q98 0 146 -57t53 -153q-6 -25 -20 -41q-154 0 -274 -6q7 -69 40.5 -111t100.5 -42q34 0 67 13.5t57 38.5q9 -5 16.5 -17zM188 377.5q-25 -34.5 -28 -109.5
h175q0 67 -22 105.5t-61 38.5t-64 -34.5zM49 702q33 13 78 13q12 0 36 -2q27 -91 71 -172q-11 -5 -24 -6.5t-33 -0.5q-64 101 -128 168zM222 702q33 13 77 13q13 0 35 -2q31 -98 71 -172q-11 -5 -24 -6.5t-33 -0.5q-65 103 -126 168z" />
    <glyph glyph-name="uni0206" unicode="&#x206;" horiz-adv-x="614" 
d="M580 155q-22 -68 -31 -157q-90 2 -227 2q-199 0 -273 -3q0 37 6 53q28 2 42 10t20 29t6 63v381q0 37 -6 56t-20.5 27t-42.5 10q-5 18 -5 53q68 -3 196 -3q161 0 278 3q10 -113 21 -164q-22 -13 -60 -13q-6 57 -40 90.5t-117 33.5h-81v-261h46q58 0 80 16.5t23 62.5
q24 8 59 8q-3 -49 -3 -111q0 -67 3 -117q-37 0 -57 6q-4 49 -26 66t-79 17h-46v-160q0 -41 7.5 -62t26 -29.5t54.5 -8.5h9q59 0 92.5 14t51 40t33.5 75q39 -7 60 -27zM178.5 837q41.5 36 118.5 36q76 0 116 -34.5t40 -101.5q-22 -10 -47 -10q-9 0 -14 1q-6 33 -34 51.5
t-71 18.5t-69 -18.5t-28 -51.5q-6 -1 -18 -1q-20 0 -35 6q0 68 41.5 104z" />
    <glyph glyph-name="uni0207" unicode="&#x207;" horiz-adv-x="494" 
d="M443.5 92q7.5 -12 8.5 -24q-36 -40 -82 -58.5t-105 -18.5q-112 0 -170 66t-58 171q0 68 27 122t77 85.5t116 31.5q98 0 146 -57t53 -153q-6 -25 -20 -41q-154 0 -274 -6q7 -69 40.5 -111t100.5 -42q34 0 67 13.5t57 38.5q9 -5 16.5 -17zM188 377.5q-25 -34.5 -28 -109.5
h175q0 67 -22 105.5t-61 38.5t-64 -34.5zM124 661.5q47 45.5 133 45.5q85 0 130.5 -44.5t45.5 -126.5q-27 -13 -58 -11q-7 47 -41.5 74t-87.5 27t-85 -27t-34 -74q-32 -2 -50 6q0 85 47 130.5z" />
    <glyph glyph-name="uni0208" unicode="&#x208;" horiz-adv-x="369" 
d="M117 589q-6 19 -20 27t-42 10q-6 21 -6 53q54 -3 137 -3q74 0 134 3q0 -15 -1 -29t-5 -24q-28 -2 -42 -10t-20 -27t-6 -56v-389q0 -38 6 -57t20 -27t42 -10q6 -16 6 -53q-55 3 -131 3q-84 0 -140 -3q0 34 6 53q28 2 42 10t20 27t6 57v389q0 37 -6 56zM-8 846q19 10 47 14
t57 2q25 -75 56 -133q-22 -9 -58 -9q-49 68 -102 126zM152 847q18 9 44.5 13t53.5 2q23 -66 56 -133q-22 -9 -57 -9q-53 76 -97 127z" />
    <glyph glyph-name="uni0209" unicode="&#x209;" horiz-adv-x="329" 
d="M42 50q40 1 54 19t14 68v178q0 26 -5.5 40.5t-21.5 22t-48 8.5q0 31 10 47q37 0 87.5 10.5t69.5 23.5q25 -10 25 -47v-283q0 -49 13.5 -67.5t47.5 -19.5q6 -19 6 -53q-48 3 -128 3q-85 0 -130 -3q0 35 6 53zM-38 702q27 13 67 13q11 0 31 -2q27 -92 68 -172
q-10 -5 -22.5 -6.5t-31.5 -0.5q-57 103 -112 168zM121 702q27 13 67 13q11 0 31 -2q27 -98 61 -172q-10 -5 -23 -6.5t-33 -0.5q-51 99 -103 168z" />
    <glyph glyph-name="uni020A" unicode="&#x20a;" horiz-adv-x="369" 
d="M117 589q-6 19 -20 27t-42 10q-6 21 -6 53q54 -3 137 -3q74 0 134 3q0 -15 -1 -29t-5 -24q-28 -2 -42 -10t-20 -27t-6 -56v-389q0 -38 6 -57t20 -27t42 -10q6 -16 6 -53q-55 3 -131 3q-84 0 -140 -3q0 34 6 53q28 2 42 10t20 27t6 57v389q0 37 -6 56zM294.5 832.5
q36.5 -37.5 36.5 -107.5q-20 -10 -41 -10q-8 0 -12 1q-7 37 -32.5 58t-67.5 21t-67 -21t-28 -58q-6 -1 -16 -1q-19 0 -28 6q0 72 37.5 110.5t110.5 38.5q71 0 107.5 -37.5z" />
    <glyph glyph-name="uni020B" unicode="&#x20b;" horiz-adv-x="329" 
d="M42 50q40 1 54 19t14 68v178q0 26 -5.5 40.5t-21.5 22t-48 8.5q0 31 10 47q37 0 87.5 10.5t69.5 23.5q25 -10 25 -47v-283q0 -49 13.5 -67.5t47.5 -19.5q6 -19 6 -53q-48 3 -128 3q-85 0 -130 -3q0 35 6 53zM274.5 663q37.5 -44 37.5 -127q-27 -13 -59 -11
q-7 48 -32 74.5t-67 26.5q-43 0 -67.5 -26.5t-26.5 -74.5q-32 -2 -50 6q0 86 38.5 131t114.5 45q74 0 111.5 -44z" />
    <glyph glyph-name="uni020C" unicode="&#x20c;" horiz-adv-x="739" 
d="M193.5 36q-75.5 45 -117 124.5t-41.5 179.5q0 102 43.5 180t119.5 121.5t171 43.5q97 0 173.5 -43t119 -120t42.5 -178q0 -100 -42.5 -180.5t-118.5 -126.5t-174 -46q-100 0 -175.5 45zM486 83q42 35 64.5 96.5t22.5 139.5q0 86 -28.5 157t-79.5 112.5t-115 41.5
q-53 0 -95 -32.5t-65.5 -92.5t-23.5 -139q0 -85 26 -157.5t76 -116.5t119 -44q57 0 99 35zM178 846q19 10 47.5 14t57.5 2q28 -71 63 -133q-22 -9 -57 -9q-59 74 -111 126zM345 847q19 9 46 13t56 2q28 -71 63 -133q-22 -9 -57 -9q-61 79 -108 127z" />
    <glyph glyph-name="uni020D" unicode="&#x20d;" horiz-adv-x="553" 
d="M100.5 54.5q-63.5 63.5 -63.5 172.5q0 71 31 125.5t85.5 84.5t123.5 30q113 0 176 -64.5t63 -171.5q0 -71 -30 -125t-84.5 -84.5t-126.5 -30.5q-111 0 -174.5 63.5zM364 92.5q27 45.5 27 120.5q0 61 -17 106t-45.5 69t-62.5 24q-50 0 -76.5 -44t-26.5 -116q0 -95 33 -150
t90 -55q51 0 78 45.5zM67 702q33 13 78 13q12 0 36 -2q27 -91 71 -172q-11 -5 -24 -6.5t-33 -0.5q-64 101 -128 168zM240 702q33 13 77 13q13 0 35 -2q31 -98 71 -172q-11 -5 -24 -6.5t-33 -0.5q-65 103 -126 168z" />
    <glyph glyph-name="uni020E" unicode="&#x20e;" horiz-adv-x="739" 
d="M193.5 36q-75.5 45 -117 124.5t-41.5 179.5q0 102 43.5 180t119.5 121.5t171 43.5q97 0 173.5 -43t119 -120t42.5 -178q0 -100 -42.5 -180.5t-118.5 -126.5t-174 -46q-100 0 -175.5 45zM486 83q42 35 64.5 96.5t22.5 139.5q0 86 -28.5 157t-79.5 112.5t-115 41.5
q-53 0 -95 -32.5t-65.5 -92.5t-23.5 -139q0 -85 26 -157.5t76 -116.5t119 -44q57 0 99 35zM253.5 837q41.5 36 118.5 36q76 0 116 -34.5t40 -101.5q-22 -10 -47 -10q-9 0 -14 1q-6 33 -34 51.5t-71 18.5t-69 -18.5t-28 -51.5q-6 -1 -18 -1q-20 0 -35 6q0 68 41.5 104z" />
    <glyph glyph-name="uni020F" unicode="&#x20f;" horiz-adv-x="553" 
d="M100.5 54.5q-63.5 63.5 -63.5 172.5q0 71 31 125.5t85.5 84.5t123.5 30q113 0 176 -64.5t63 -171.5q0 -71 -30 -125t-84.5 -84.5t-126.5 -30.5q-111 0 -174.5 63.5zM364 92.5q27 45.5 27 120.5q0 61 -17 106t-45.5 69t-62.5 24q-50 0 -76.5 -44t-26.5 -116q0 -95 33 -150
t90 -55q51 0 78 45.5zM142 661.5q47 45.5 133 45.5q85 0 130.5 -44.5t45.5 -126.5q-27 -13 -58 -11q-7 47 -41.5 74t-87.5 27t-85 -27t-34 -74q-32 -2 -50 6q0 85 47 130.5z" />
    <glyph glyph-name="uni0210" unicode="&#x210;" horiz-adv-x="693" 
d="M587.5 88.5q14.5 -17.5 33.5 -25.5t51 -10q0 -33 -6 -53q-116 0 -176 -9q-31 54 -50 94.5t-23 49.5q-29 56 -51 89t-60 70l-31 -1l-29 1v-148q0 -39 5.5 -59t18.5 -28t38 -9q5 -16 5 -53q-42 3 -134 3q-79 0 -130 -3q0 35 6 53q28 2 42 10t20 27t6 57v389q0 38 -6 57.5
t-20.5 27.5t-42.5 9q-5 19 -5 52q37 -3 134 -3l79 1q64 2 99 2q112 0 169.5 -48.5t57.5 -125.5q0 -72 -43.5 -121t-118.5 -68q35 -30 58.5 -63t68.5 -112q20 -35 34.5 -52.5zM286 347q76 0 124.5 36.5t48.5 107.5q0 64 -36.5 99.5t-111.5 35.5q-31 0 -65 -8v-268
q24 -3 40 -3zM124 846q19 10 47.5 14t57.5 2q28 -71 63 -133q-22 -9 -57 -9q-59 74 -111 126zM291 847q19 9 46 13t56 2q28 -71 63 -133q-22 -9 -57 -9q-61 79 -108 127z" />
    <glyph glyph-name="uni0211" unicode="&#x211;" horiz-adv-x="449" 
d="M423.5 371q-2.5 -38 -1.5 -68q-11 -5 -31.5 -8t-38.5 -3q-2 42 -13.5 58t-33.5 16q-16 0 -34.5 -18.5t-31 -49t-12.5 -64.5v-73q0 -43 9.5 -66.5t29.5 -33t56 -11.5q6 -17 6 -53q-49 3 -141 3q-104 0 -151 -3q0 37 5 53q28 2 42.5 10t20.5 27.5t6 56.5v166q0 28 -5 43.5
t-21 23.5t-48 9q0 31 10 47q42 1 87 11.5t69 22.5q25 -10 25 -50q0 -22 -4.5 -46.5t-9.5 -48.5q3 9 10 28t13 28q23 37 54.5 59t69.5 22q37 0 70 -24q-4 -26 -6.5 -64zM37 702q33 13 78 13q12 0 36 -2q27 -91 71 -172q-11 -5 -24 -6.5t-33 -0.5q-64 101 -128 168zM210 702
q33 13 77 13q13 0 35 -2q31 -98 71 -172q-11 -5 -24 -6.5t-33 -0.5q-65 103 -126 168z" />
    </font>
</defs>
</svg>
